<?xml version="1.0" standalone="no"?>
<!DOCTYPE svg PUBLIC "-//W3C//DTD SVG 1.1//EN" "http://www.w3.org/Graphics/SVG/1.1/DTD/svg11.dtd" >
<svg xmlns="http://www.w3.org/2000/svg" xmlns:xlink="http://www.w3.org/1999/xlink" version="1.1">
<metadata></metadata>
<defs>
<font id="supergroteskb_cdbdlfregular" horiz-adv-x="1064" >
<font-face units-per-em="2048" ascent="1638" descent="-410" />
<missing-glyph horiz-adv-x="409" />
<glyph horiz-adv-x="0" />
<glyph horiz-adv-x="682" />
<glyph unicode=" "  horiz-adv-x="409" />
<glyph unicode="&#x09;" horiz-adv-x="409" />
<glyph unicode="&#xa0;" horiz-adv-x="409" />
<glyph unicode="!" horiz-adv-x="532" d="M82 0v328h369v-328h-369zM82 451v1024h369v-1024h-369z" />
<glyph unicode="&#x22;" horiz-adv-x="921" d="M102 1475h308l-21 -656h-266zM512 1475h307l-20 -656h-267z" />
<glyph unicode="#" horiz-adv-x="1187" d="M82 328v266h123v246h-123v266h123v287h327v-287h123v287h328v-287h123v-266h-123v-246h123v-266h-123v-328h-328v328h-123v-328h-327v328h-123zM532 594h123v246h-123v-246z" />
<glyph unicode="$" horiz-adv-x="1036" d="M20 266l322 158q27 -67 59 -92t70 -25q34 0 58 20t24 62q0 39 -26 77t-67.5 71.5t-92 70.5t-100.5 82t-91.5 96.5t-67.5 123.5t-26 155q0 131 87.5 231t240.5 129v213h204v-211q99 -12 175 -50.5t123 -90t83 -123.5l-278 -145q-29 52 -56 80t-67 28q-50 0 -76 -22 t-26 -80q0 -28 27 -58.5t70.5 -62t95.5 -68.5t104.5 -85.5t96 -104t70.5 -133t27 -164.5q0 -160 -100 -259.5t-269 -123.5v-211h-204v213q-146 22 -244.5 104.5t-145.5 194.5z" />
<glyph unicode="%" horiz-adv-x="1576" d="M82 1044q0 85 17.5 153.5t46 111.5t67 72t77 41t79.5 12q52 0 100 -20.5t91 -63t69 -122t26 -184.5t-26 -184t-69 -122t-91 -63t-100 -20t-100 20t-91.5 63t-69.5 122t-26 184zM328 1044q0 -108 6.5 -146t34.5 -38t34.5 38t6.5 146t-6.5 146.5t-34.5 38.5t-34.5 -38.5 t-6.5 -146.5zM369 0l553 1393h286l-553 -1393h-286zM922 348q0 105 26 184t69 122t91 63t100 20t100 -20t91.5 -63t69.5 -122t26 -184t-26 -184t-69.5 -122t-91.5 -63t-100 -20t-100 20t-91 63t-69 122t-26 184zM1167 348q0 -107 6.5 -145.5t34.5 -38.5t34.5 38.5t6.5 145.5 q0 108 -6.5 146t-34.5 38t-34.5 -38t-6.5 -146z" />
<glyph unicode="&#x26;" horiz-adv-x="1280" d="M61 430q0 231 218 375q-41 49 -67 121t-26 151q0 154 109 248t295 94q184 0 279.5 -92.5t95.5 -249.5q0 -69 -15 -121t-54.5 -96t-63.5 -64t-84 -62q-3 -3 -5 -4t-5 -3t-5 -4l131 -186q27 69 27 163h332q0 -192 -34 -296t-104 -187l154 -217h-375l-22 29 q-144 -58 -264 -58q-119 0 -217.5 36t-163.5 98.5t-100.5 146t-35.5 178.5zM412 432q0 -89 62.5 -119.5t160.5 6.5l-162 224q-61 -52 -61 -111zM513.5 1053q10.5 -46 55.5 -95q44 27 68.5 54.5t24.5 64.5q0 76 -74 76q-42 0 -63.5 -27t-11 -73z" />
<glyph unicode="'" horiz-adv-x="512" d="M102 1475h308l-21 -656h-266z" />
<glyph unicode="(" horiz-adv-x="655" d="M41 696q0 515 205 942l368 -184q-76 -129 -130 -333.5t-54 -424.5t54 -424t130 -333l-368 -179q-205 427 -205 936z" />
<glyph unicode=")" horiz-adv-x="655" d="M41 -61q76 129 130 333t54 424t-54 424.5t-130 333.5l369 184q204 -425 204 -942q0 -511 -204 -936z" />
<glyph unicode="*" horiz-adv-x="806" d="M82 1237l92 158l141 -88l-4 168h185l-4 -168l141 88l90 -158l-148 -80l150 -80l-92 -157l-141 88l4 -168h-185l4 168l-141 -88l-90 157l147 80z" />
<glyph unicode="+" horiz-adv-x="1044" d="M82 471v307h287v287h307v-287h287v-307h-287v-287h-307v287h-287z" />
<glyph unicode="," horiz-adv-x="532" d="M-20 -287q102 102 102 287v369h369v-369q0 -65 -17 -124t-42 -102.5t-66 -87t-76.5 -72.5t-85.5 -65z" />
<glyph unicode="-" horiz-adv-x="696" d="M82 471v307h532v-307h-532z" />
<glyph unicode="." horiz-adv-x="532" d="M82 0v369h369v-369h-369z" />
<glyph unicode="/" horiz-adv-x="778" d="M0 -205l492 1802h286l-491 -1802h-287z" />
<glyph unicode="0" d="M41 696q0 738 491 738q492 0 492 -738q0 -164 -25 -291.5t-69 -210.5t-107 -136.5t-134.5 -76t-156.5 -22.5q-491 0 -491 737zM451 696q0 -246 14 -327.5t67 -81.5q54 0 68 81t14 328q0 258 -13.5 334t-68.5 76q-19 0 -31.5 -7t-22 -27.5t-14.5 -46.5t-8 -77.5t-4 -106.5 t-1 -145z" />
<glyph unicode="1" horiz-adv-x="716" d="M61 942v328l205 123h348v-1393h-409v1024z" />
<glyph unicode="2" d="M61 0v164q0 92 30.5 176.5t79.5 149t107.5 123t117.5 109t108 96t79.5 93.5t30.5 93q0 42 -18.5 61.5t-63.5 19.5q-32 0 -46.5 -31.5t-14.5 -111.5l-389 21q0 97 27.5 180t83 149.5t147.5 104t213 37.5q97 0 176.5 -23.5t133.5 -64t90.5 -96t53.5 -117t17 -129.5 q0 -75 -25 -144.5t-64.5 -122.5t-88 -101.5t-96.5 -89t-87.5 -76.5t-64.5 -72.5t-25 -69.5h451l-20 -328h-943z" />
<glyph unicode="3" horiz-adv-x="1105" d="M61 492l390 20q0 -91 28 -137.5t80 -46.5q43 0 69.5 32t26.5 91q0 95 -26.5 129t-96.5 34v267q62 0 82.5 20.5t20.5 81.5q0 96 -76 96q-88 0 -88 -127l-369 31q0 202 126 326.5t366 124.5q207 0 318.5 -104.5t111.5 -264.5q0 -100 -39 -182t-125 -123v-4q99 -36 152 -118 t53 -228q0 -201 -128.5 -326t-342.5 -125q-262 0 -397.5 136t-135.5 397z" />
<glyph unicode="4" horiz-adv-x="1095" d="M-20 205l512 1188h450v-881h82v-307h-82v-205h-389v205h-573zM369 512h184v430z" />
<glyph unicode="5" horiz-adv-x="1024" d="M0 184l246 267q47 -64 90 -93.5t94 -29.5q69 0 106 53.5t37 150.5q0 92 -45 148.5t-118 56.5q-86 0 -144 -27t-143 -96l61 779h697l-41 -308h-389l-21 -143q92 62 205 62q161 0 254.5 -131t93.5 -341q0 -277 -133.5 -425t-382.5 -148q-279 0 -467 225z" />
<glyph unicode="6" horiz-adv-x="1085" d="M41 532q0 264 143 512q59 101 111 173.5t135 175.5h430q-137 -154 -218 -262.5t-110 -188.5q63 25 130 26.5t132 -25t116 -78.5t82.5 -143.5t31.5 -209.5q0 -251 -126.5 -402t-365.5 -151q-109 0 -192.5 27t-139.5 76t-92 121t-51.5 157.5t-15.5 191.5zM451 481 q0 -108 21 -151t60 -43q40 0 61 42.5t21 151.5t-21 152t-61 43q-39 0 -60 -43.5t-21 -151.5z" />
<glyph unicode="7" horiz-adv-x="962" d="M0 1065l61 328h902v-308l-369 -1085h-410l369 1065h-553z" />
<glyph unicode="8" d="M41 430q0 116 49.5 211.5t134.5 157.5q-50 33 -86.5 100.5t-36.5 144.5q0 172 111.5 281t318.5 109q209 0 320 -107.5t111 -282.5q0 -77 -36.5 -144.5t-86.5 -100.5q86 -62 135 -157t49 -212q0 -215 -134 -343t-358 -128q-223 0 -357 128t-134 343zM440 451 q0 -81 25 -122.5t67 -41.5q43 0 68 41t25 123t-25 122.5t-68 40.5q-42 0 -67 -41t-25 -122zM451 1024q0 -61 22.5 -92t58.5 -31q82 0 82 123t-82 123q-36 0 -58.5 -30t-22.5 -93z" />
<glyph unicode="9" horiz-adv-x="1085" d="M41 881q0 165 53.5 287.5t165.5 194t272 71.5q135 0 232 -41t153 -119t81.5 -179.5t25.5 -234.5q0 -264 -143 -512q-58 -101 -109.5 -172.5t-136.5 -175.5h-430q136 153 217 261.5t110 189.5q-63 -25 -130 -26.5t-131.5 25t-115.5 78.5t-82.5 143.5t-31.5 209.5zM451 911 q0 -109 20.5 -151.5t60.5 -42.5q39 0 60.5 43t21.5 151t-21.5 151.5t-60.5 43.5q-40 0 -60.5 -43t-20.5 -152z" />
<glyph unicode=":" horiz-adv-x="532" d="M82 0v369h369v-369h-369zM82 737v369h369v-369h-369z" />
<glyph unicode=";" horiz-adv-x="532" d="M-20 -287q102 102 102 287v369h369v-369q0 -65 -17 -124t-42 -102.5t-66 -87t-76.5 -72.5t-85.5 -65zM82 737v369h369v-369h-369z" />
<glyph unicode="&#x3c;" horiz-adv-x="1044" d="M82 502v246l881 532v-348l-553 -307l553 -287v-344z" />
<glyph unicode="=" horiz-adv-x="1044" d="M82 246v286h881v-286h-881zM82 717v287h881v-287h-881z" />
<glyph unicode="&#x3e;" horiz-adv-x="1044" d="M82 -6v344l553 287l-553 307v348l881 -532v-246z" />
<glyph unicode="?" horiz-adv-x="983" d="M41 983q-15 134 15.5 236.5t97.5 163.5t157 91.5t201 30.5q205 0 317.5 -109.5t112.5 -271.5q0 -91 -18 -161t-46 -112.5t-61.5 -77.5t-65.5 -65.5t-57 -65.5t-36 -88t-3 -124h-389q-15 96 -7 162t34.5 119.5t61.5 89t73.5 70t70.5 63t53 68.5t21 85q0 62 -18.5 91.5 t-62.5 29.5q-127 0 -103 -225h-348zM266 0v307h389v-307h-389z" />
<glyph unicode="@" horiz-adv-x="1372" d="M61 471q0 173 50.5 320t136.5 246.5t202 155.5t246 56q131 0 246 -49.5t202 -139.5t137 -226.5t50 -301.5q0 -203 -97 -316.5t-230 -113.5q-66 0 -113.5 22t-91.5 81q-69 -103 -185 -103q-40 0 -78.5 21t-72 63t-54 116t-20.5 169q0 182 59.5 275.5t145.5 93.5 q48 0 81 -22t62 -81v82h226v-409q0 -38 15.5 -60t45.5 -22t45.5 51.5t15.5 132.5q0 126 -31.5 226t-86 161t-124 93t-147.5 32t-147.5 -35t-124 -102t-86 -174.5t-31.5 -241.5q0 -133 34.5 -241t91 -174.5t124.5 -102t139 -35.5q90 0 156.5 29.5t130.5 93.5l246 -100 q-120 -133 -247.5 -190.5t-285.5 -57.5q-130 0 -246 56t-202 155.5t-136.5 246.5t-50.5 320zM614 471q0 -103 15 -143.5t47 -40.5t46.5 40t14.5 144t-14.5 144t-46.5 40t-47 -40.5t-15 -143.5z" />
<glyph unicode="A" horiz-adv-x="1146" d="M0 0l369 1475h409l369 -1475h-451l-20 184h-205l-20 -184h-451zM516 532h115l-45 369q-10 102 -11 123h-4q-2 -41 -10 -123z" />
<glyph unicode="B" horiz-adv-x="1167" d="M82 0v1475h573q88 0 161 -22.5t121.5 -60t83 -86t49.5 -99t15 -101.5q0 -110 -47.5 -193.5t-136.5 -111.5v-4q109 -45 167 -138t58 -229q0 -65 -13 -123.5t-47 -116t-85.5 -98.5t-135 -66.5t-190.5 -25.5h-573zM512 328q97 0 140.5 31t43.5 112q0 87 -45 125.5t-139 38.5 v-307zM512 881q92 0 128 32t36 111q0 75 -37 109t-127 34v-286z" />
<glyph unicode="C" horiz-adv-x="1148" d="M41 737q0 158 32.5 295.5t97.5 247t173.5 173t249.5 63.5q69 0 134 -15.5t129.5 -52t116 -91t90.5 -140t54 -191.5l-401 -84q-15 104 -42 154.5t-81 50.5q-123 0 -123 -410q0 -150 15.5 -242t41.5 -129.5t66 -37.5q53 0 79.5 50.5t43.5 153.5l411 -92q-48 -227 -185 -354 t-349 -127q-113 0 -206 41.5t-156.5 114t-107 172t-63.5 212t-20 238.5z" />
<glyph unicode="D" horiz-adv-x="1187" d="M82 0v1475h532q181 0 301.5 -91.5t176 -254t55.5 -392.5q0 -362 -134 -549.5t-419 -187.5h-512zM512 369q55 0 92 15.5t59.5 42t34.5 75.5t15.5 101t3.5 134q0 69 -3.5 118t-16 99.5t-34 81.5t-59.5 50.5t-92 19.5v-737z" />
<glyph unicode="E" horiz-adv-x="931" d="M82 0v1475h758l20 -369h-348v-184h307v-349h-307v-184h348l-20 -389h-758z" />
<glyph unicode="F" horiz-adv-x="911" d="M82 0v1475h758l20 -369h-348v-184h307v-349h-307v-573h-430z" />
<glyph unicode="G" horiz-adv-x="1228" d="M41 737q0 127 20 239t65.5 212t113 172t169 114t226.5 42q119 0 212 -35.5t155 -101.5t101.5 -148t63.5 -187l-368 -81q-14 85 -56.5 134.5t-107.5 49.5q-77 0 -120.5 -106t-43.5 -304q0 -197 43.5 -303t120.5 -106q57 0 93 25t71 77v123h-164l20 307h512v-594 q-184 -307 -532 -307q-125 0 -226.5 42t-169 113.5t-113 171.5t-65.5 212t-20 239z" />
<glyph unicode="H" horiz-adv-x="1228" d="M82 0v1475h430v-512h205v512h430v-1475h-430v594h-205v-594h-430z" />
<glyph unicode="I" horiz-adv-x="593" d="M82 0v1475h430v-1475h-430z" />
<glyph unicode="J" horiz-adv-x="737" d="M0 102l102 349q24 -24 45 -37t39 -14.5t28.5 16.5t10.5 55v1004h430v-1147q0 -191 -75.5 -280t-231.5 -89q-205 0 -348 143z" />
<glyph unicode="K" horiz-adv-x="1167" d="M82 0v1475h430v-615h4l201 615h430l-287 -717l307 -758h-430l-221 614h-4v-614h-430z" />
<glyph unicode="L" horiz-adv-x="839" d="M82 0v1475h430v-1106h328l-41 -369h-717z" />
<glyph unicode="M" horiz-adv-x="1556" d="M82 0v1475h430l244 -676q12 -33 20 -72h4q7 33 21 72l243 676h431v-1475h-431v799h-4q-10 -39 -26 -82l-236 -635l-235 635q-23 67 -27 82h-4v-799h-430z" />
<glyph unicode="N" horiz-adv-x="1249" d="M82 0v1475h410l215 -594q20 -62 26 -93h4v687h430v-1475h-409l-215 594q-20 54 -27 92h-4v-686h-430z" />
<glyph unicode="O" horiz-adv-x="1208" d="M41 737q0 236 64.5 410.5t192.5 271.5t306 97q269 0 416 -209.5t147 -569.5q0 -236 -64.5 -410.5t-192.5 -271t-308 -96.5q-267 0 -414 209.5t-147 568.5zM471 737q0 -218 30 -313.5t103 -95.5q74 0 103.5 95t29.5 314q0 220 -29.5 315t-103.5 95q-73 0 -103 -96 t-30 -314z" />
<glyph unicode="P" horiz-adv-x="1126" d="M82 0v1475h512q127 0 229.5 -39.5t167.5 -107t100 -156t35 -189.5q0 -127 -50 -228.5t-134 -163.5t-196 -88q-71 -16 -146 -16q-43 0 -88 5v-492h-430zM512 819q109 0 157 36.5t48 127.5t-48 127.5t-157 36.5v-328z" />
<glyph unicode="Q" horiz-adv-x="1208" d="M41 737q0 236 64.5 410.5t192.5 271.5t306 97q269 0 416 -209.5t147 -569.5q0 -286 -96 -483l158 -254h-266l-41 66q-128 -107 -320 -107q-267 0 -414 209.5t-147 568.5zM471 737q0 -218 30 -313.5t103 -95.5q71 0 101 88l-111 178h139q4 43 4 143q0 220 -29.5 315 t-103.5 95q-73 0 -103 -96t-30 -314z" />
<glyph unicode="R" horiz-adv-x="1146" d="M82 0v1475h553q90 0 174.5 -30.5t150.5 -85t106 -136.5t40 -179q0 -174 -53.5 -267t-159.5 -142l233 -635h-430l-180 573h-4v-573h-430zM512 840q100 0 152.5 37t52.5 127q0 92 -52 127.5t-153 35.5v-327z" />
<glyph unicode="S" horiz-adv-x="1085" d="M20 287l328 164q49 -123 144 -123q31 0 56 25.5t25 56.5q0 41 -27 81t-70.5 76t-95.5 75t-104.5 87t-96 102.5t-70.5 131t-27 163.5q0 77 30.5 147.5t86.5 124.5t142.5 86t190.5 32t188.5 -21t145 -61.5t103.5 -90t75 -114.5l-307 -144q-27 53 -53.5 78t-69.5 25 q-38 0 -60 -28.5t-22 -74.5q0 -29 28 -61t73.5 -66t100 -73.5t109 -91t100 -110.5t73.5 -140.5t28 -173.5q0 -97 -39.5 -175.5t-109 -129.5t-162.5 -78t-201 -27q-103 0 -190.5 27.5t-148.5 75.5t-103.5 104t-69.5 121z" />
<glyph unicode="T" horiz-adv-x="921" d="M0 1106l41 369h840l41 -369h-246v-1106h-430v1106h-246z" />
<glyph unicode="U" horiz-adv-x="1208" d="M72 492v983h430v-983q0 -83 22 -123.5t80 -40.5t80.5 41t22.5 123v983h430v-983q0 -273 -134 -403t-399 -130t-398.5 130t-133.5 403z" />
<glyph unicode="V" horiz-adv-x="1105" d="M0 1475h442l97 -779q1 -14 4 -39t5 -45.5t3 -38.5h4q1 18 3 38.5t5 45.5t4 39l97 779h442l-332 -1475h-442z" />
<glyph unicode="W" horiz-adv-x="1638" d="M0 1475h432l98 -717q10 -90 11 -103h4q3 54 12 103l115 717h295l114 -717q11 -62 13 -103h4q2 39 10 103l98 717h432l-266 -1475h-405l-131 717q-14 82 -15 102h-4q-1 -28 -14 -102l-131 -717h-406z" />
<glyph unicode="X" d="M0 0l328 758l-328 717h430l82 -246q14 -46 18 -72h5q4 26 18 72l80 246h432l-328 -717l328 -758h-430l-84 266q-10 32 -16 72h-5q-6 -40 -16 -72l-84 -266h-430z" />
<glyph unicode="Y" horiz-adv-x="1085" d="M-10 1475h440l94 -533q10 -51 17 -123h4q8 82 16 123l94 533h441l-338 -1004v-471h-430v471z" />
<glyph unicode="Z" horiz-adv-x="962" d="M41 0l348 1085h-348l61 390h820l-369 -1086h369l-62 -389h-819z" />
<glyph unicode="[" horiz-adv-x="675" d="M82 -205v1802l491 21l41 -348h-143v-1147h143l-41 -348z" />
<glyph unicode="\" horiz-adv-x="778" d="M0 1597h287l491 -1802h-286z" />
<glyph unicode="]" horiz-adv-x="675" d="M61 123h144v1147h-144l41 348l492 -21v-1802l-492 -20z" />
<glyph unicode="^" horiz-adv-x="983" d="M82 655l205 820h409l205 -820h-328l-81 533l-82 -533h-328z" />
<glyph unicode="_" d="M0 -123h1065v-307h-1065v307z" />
<glyph unicode="`" horiz-adv-x="552" d="M82 1475h307l82 -287h-225z" />
<glyph unicode="a" horiz-adv-x="1075" d="M41 287q0 185 156.5 297t416.5 112q0 91 -19.5 117.5t-82.5 26.5q-64 0 -151.5 -32t-176.5 -91l-82 287q84 70 226 101.5t286 31.5q72 0 122 -5.5t97 -21.5t76.5 -45t52 -75t32.5 -113.5t10 -159.5v-717h-390v123h-4q-42 -76 -115 -115t-167 -39q-130 0 -208.5 79.5 t-78.5 238.5zM410 348q0 -61 61 -61q53 0 98 53.5t45 151.5q-103 0 -153.5 -39.5t-50.5 -104.5z" />
<glyph unicode="b" horiz-adv-x="1075" d="M72 0v1495h389v-512h4q86 154 242 154q64 0 121 -34.5t104 -102.5t74.5 -183.5t27.5 -263.5t-27.5 -263.5t-74.5 -183.5t-104 -102.5t-121 -34.5q-156 0 -242 154h-4v-123h-389zM461 553q0 -118 13 -185t29 -84.5t40 -17.5q17 0 30.5 11t26 39.5t19 88.5t6.5 148 t-6.5 148t-19 88.5t-26 39.5t-30.5 11t-30.5 -11t-26 -39.5t-19 -88.5t-6.5 -148z" />
<glyph unicode="c" horiz-adv-x="921" d="M41 553q0 149 37 263.5t103 183t149 103t182 34.5q69 0 128.5 -19.5t100.5 -49.5t74.5 -71t52.5 -78.5t33 -78.5l-307 -121q-8 53 -27 76.5t-55 23.5q-82 0 -82 -266q0 -146 21 -206t61 -60q36 0 55 26t27 76l328 -102q-20 -55 -41.5 -96.5t-55.5 -85.5t-75.5 -72 t-102.5 -46t-135 -18q-99 0 -182 34.5t-149 103t-103 183t-37 263.5z" />
<glyph unicode="d" horiz-adv-x="1075" d="M41 553q0 148 28 263.5t75 183.5t104 102.5t121 34.5q155 0 241 -154h4v512h390v-1495h-390v123h-4q-86 -154 -241 -154q-64 0 -121 34.5t-104 102.5t-75 183.5t-28 263.5zM451 553q0 -88 6.5 -148t19 -88.5t25.5 -39.5t30 -11q24 0 40 17.5t29 84.5t13 185 q0 88 -6.5 148t-19 88.5t-26 39.5t-30.5 11t-30 -11t-25.5 -39.5t-19 -88.5t-6.5 -148z" />
<glyph unicode="e" horiz-adv-x="1003" d="M41 553q0 120 23.5 217.5t65.5 165.5t101.5 113.5t129.5 66.5t151 21q90 0 168.5 -30.5t143 -91.5t102 -164.5t37.5 -236.5v-184h-533q0 -95 18.5 -139.5t63.5 -44.5q36 0 55 26t27 76l338 -102q-67 -135 -164.5 -206t-255.5 -71q-81 0 -151 21t-129.5 66.5t-101.5 113.5 t-65.5 165.5t-23.5 217.5zM430 635h164q0 205 -82 205t-82 -205z" />
<glyph unicode="f" horiz-adv-x="665" d="M10 778l41 328h62q0 71 11 127t39 106.5t73.5 83.5t117.5 52.5t168 19.5h103v-287q-76 0 -99.5 -20t-23.5 -82h123v-328h-123v-778h-389v778h-103z" />
<glyph unicode="g" horiz-adv-x="1075" d="M-10 -143q0 111 112 190q-51 57 -51 137q0 151 148 230q-60 52 -93.5 130.5t-33.5 172.5q0 186 129 303t342 117q82 0 166 -23q35 62 47 124.5t12 174.5h328q0 -142 -46 -234t-145 -180q109 -112 109 -282q0 -187 -129.5 -308.5t-341.5 -121.5q-77 0 -148 18 q-16 -19 -16 -39q0 -38 60.5 -49.5t185.5 -11.5q52 0 91.5 -2t91 -9.5t89.5 -21t77.5 -38t64.5 -58t41 -84.5t16 -115q0 -172 -144.5 -250t-429.5 -78q-256 0 -394 83.5t-138 224.5zM297 -123q0 -40 62 -61t155 -21q114 0 153.5 8t39.5 43t-42 43.5t-163 8.5q-109 0 -197 26 q-8 -28 -8 -47zM451 717q0 -56 28 -84.5t64 -28.5t64 28.5t28 84.5t-28 84t-64 28t-64 -28t-28 -84z" />
<glyph unicode="h" d="M72 0v1495h389v-512h4q50 72 120 113t183 41q33 0 62.5 -7t60.5 -26t52.5 -49t35.5 -80t14 -115v-860h-389v696q0 123 -72 123q-38 0 -54.5 -30t-16.5 -93v-696h-389z" />
<glyph unicode="i" horiz-adv-x="532" d="M72 0v1106h389v-1106h-389zM72 1188v287h389v-287h-389z" />
<glyph unicode="j" horiz-adv-x="532" d="M-10 -61q33 -8 51 -8q13 0 18 4q13 10 13 65v1106h389v-1188q0 -89 -13.5 -153.5t-45.5 -114.5t-88.5 -75.5t-139.5 -25.5q-123 0 -184 41v349zM72 1188v287h389v-287h-389z" />
<glyph unicode="k" horiz-adv-x="993" d="M72 0v1495h389v-819h4l119 430h389l-205 -512l225 -594h-368l-160 471h-4v-471h-389z" />
<glyph unicode="l" horiz-adv-x="532" d="M72 0v1495h389v-1495h-389z" />
<glyph unicode="m" horiz-adv-x="1597" d="M72 0v1106h389v-123h4q118 154 323 154q86 0 137.5 -43t67.5 -111q124 154 328 154q108 0 156.5 -59.5t48.5 -196.5v-881h-389v696q0 123 -72 123q-32 0 -52 -32t-20 -91v-696h-389v696q0 123 -72 123q-73 0 -73 -119v-700h-387z" />
<glyph unicode="n" d="M72 0v1106h389v-123h4q50 72 120 113t183 41q33 0 62.5 -7t60.5 -26t52.5 -49t35.5 -80t14 -115v-860h-389v696q0 123 -72 123q-38 0 -54.5 -30t-16.5 -93v-696h-389z" />
<glyph unicode="o" horiz-adv-x="1024" d="M41 553q0 149 37 263.5t103 183t149 103t182 34.5t182 -34.5t149 -103t103 -183t37 -263.5t-37 -263.5t-103 -183t-149 -103t-182 -34.5t-182 34.5t-149 103t-103 183t-37 263.5zM430 553v-16q0 -139 17 -193q18 -58 65 -58t65 58q17 54 17 193v16q-1 154 -18.5 210 t-63.5 56t-63.5 -56t-18.5 -210z" />
<glyph unicode="p" horiz-adv-x="1075" d="M72 -410v1516h389v-123h4q86 154 242 154q64 0 121 -34.5t104 -102.5t74.5 -183.5t27.5 -263.5t-27.5 -263.5t-74.5 -183.5t-104 -102.5t-121 -34.5q-156 0 -242 154h-4v-533h-389zM461 553q0 -118 13 -185t29 -84.5t40 -17.5q17 0 30.5 11t26 39.5t19 88.5t6.5 148 t-6.5 148t-19 88.5t-26 39.5t-30.5 11t-30.5 -11t-26 -39.5t-19 -88.5t-6.5 -148z" />
<glyph unicode="q" horiz-adv-x="1075" d="M41 553q0 148 28 263.5t75 183.5t104 102.5t121 34.5q155 0 241 -154h4v123h390v-1516h-390v533h-4q-86 -154 -241 -154q-64 0 -121 34.5t-104 102.5t-75 183.5t-28 263.5zM451 553q0 -88 6.5 -148t19 -88.5t25.5 -39.5t30 -11q24 0 40 17.5t29 84.5t13 185 q0 88 -6.5 148t-19 88.5t-26 39.5t-30.5 11t-30 -11t-25.5 -39.5t-19 -88.5t-6.5 -148z" />
<glyph unicode="r" horiz-adv-x="768" d="M72 0v1106h389v-123h4q52 83 122 118.5t181 35.5v-359q-184 0 -245.5 -58t-61.5 -228v-492h-389z" />
<glyph unicode="s" horiz-adv-x="819" d="M20 123l164 266q102 -102 164 -102q28 0 45 12.5t17 28.5q0 29 -19 55t-50 48t-68.5 46.5t-74.5 56t-68 69.5t-50 93.5t-19 122.5q0 131 94 224.5t255 93.5q72 0 132.5 -10.5t108.5 -32t69.5 -34t57.5 -36.5l-143 -225q-61 61 -123 61q-61 0 -61 -61q0 -16 36 -42 t87 -62.5t102 -84.5t87 -122t36 -160q0 -70 -26.5 -134t-75 -114.5t-123.5 -80.5t-164 -30q-236 0 -390 154z" />
<glyph unicode="t" horiz-adv-x="716" d="M10 778l41 328h62v205l389 61v-266h143v-328h-143v-354q0 -43 10.5 -67t30.5 -30t44.5 -0.5t57.5 21.5v-307q-107 -72 -287 -72q-111 0 -178 71.5t-67 205.5v532h-103z" />
<glyph unicode="u" d="M72 246v860h389v-696q0 -63 16.5 -93t54.5 -30q72 0 72 123v696h389v-1106h-389v123h-4q-50 -72 -120 -113t-183 -41q-33 0 -62.5 7t-60.5 26t-52.5 49t-35.5 80t-14 115z" />
<glyph unicode="v" horiz-adv-x="942" d="M10 1106h369l76 -553q6 -41 14 -123h4q8 82 14 123l76 553h369l-240 -1106h-442z" />
<glyph unicode="w" horiz-adv-x="1495" d="M10 1106h387l78 -451q9 -47 12 -92h5q5 39 16 92l92 451h295l94 -451q9 -49 15 -92h4q12 90 12 92l78 451h387l-221 -1106h-406l-96 614q-10 57 -12 103h-5q-2 -46 -12 -103l-96 -614h-406z" />
<glyph unicode="x" horiz-adv-x="942" d="M20 0l259 553l-259 553h388l45 -143q11 -35 16 -72h4q3 21 16 72l46 143h387l-256 -553l256 -553h-387l-48 164q-10 42 -14 72h-4q-4 -30 -14 -72l-47 -164h-388z" />
<glyph unicode="y" horiz-adv-x="901" d="M-10 1106h368l64 -287q16 -82 20 -123h4q7 51 25 123l72 287h368l-389 -1516h-368l131 521z" />
<glyph unicode="z" horiz-adv-x="808" d="M10 0l287 778h-246l62 328h675l-286 -778h286l-61 -328h-717z" />
<glyph unicode="{" horiz-adv-x="716" d="M41 553v287q29 0 42.5 2t30 10.5t23 30.5t6.5 59v287q0 98 9.5 161.5t34.5 114.5t72 78t117.5 41t176.5 14h123v-266q-91 0 -117.5 -19.5t-26.5 -82.5v-430q0 -63 -18 -96t-63 -48q45 -15 63 -47.5t18 -95.5v-430q0 -63 26.5 -83t117.5 -20v-266h-123q-88 0 -151.5 8.5 t-109.5 30t-74.5 51t-45.5 78t-23 105t-6 137.5v278q0 40 -6.5 64t-23 33.5t-30 11.5t-42.5 2z" />
<glyph unicode="|" horiz-adv-x="778" d="M266 -205v1802h246v-1802h-246z" />
<glyph unicode="}" horiz-adv-x="716" d="M41 20q90 0 116.5 20t26.5 83v430q0 62 18.5 95t63.5 48q-45 15 -63.5 48t-18.5 96v430q0 63 -26 82.5t-117 19.5v266h123q88 0 151 -8.5t109.5 -29.5t74.5 -50.5t45 -78.5t23 -105t6 -137v-287q0 -37 6.5 -59t23.5 -30.5t30.5 -10.5t42.5 -2v-287q-29 0 -42.5 -2 t-30.5 -11.5t-23.5 -33.5t-6.5 -64v-278q0 -81 -6 -137.5t-23 -105t-45 -78t-74.5 -51t-109.5 -30t-151 -8.5h-123v266z" />
<glyph unicode="~" horiz-adv-x="1228" d="M88 664q0 96 7.5 165t27.5 126.5t54.5 92t88 53.5t127.5 19q59 0 137.5 -31t147 -62.5t102.5 -31.5q62 0 86.5 24.5t24.5 86.5h248q0 -120 -12.5 -200t-45.5 -140t-93 -87.5t-152 -27.5q-56 0 -114.5 19t-99.5 42.5t-89 42.5t-84 19q-63 0 -87 -23.5t-24 -86.5h-250z" />
<glyph unicode="&#xa1;" horiz-adv-x="532" d="M82 -369v1024h369v-1024h-369zM82 778v328h369v-328h-369z" />
<glyph unicode="&#xa2;" horiz-adv-x="921" d="M41 553q0 252 101 395.5t268 177.5v226h204v-228q61 -15 111 -46.5t84 -73t55.5 -81.5t36.5 -83l-307 -121q-8 53 -27 76.5t-55 23.5q-82 0 -82 -266q0 -146 21 -206t61 -60q36 0 55 26t27 76l328 -102q-22 -59 -46 -103t-59.5 -88.5t-86.5 -73.5t-116 -42v-226h-204v226 q-166 33 -267.5 176.5t-101.5 396.5z" />
<glyph unicode="&#xa3;" horiz-adv-x="962" d="M41 0v313q35 20 55.5 35.5t38.5 42t26 54t14 81.5t7.5 113.5t1.5 159.5h-123l41 225h82v61q0 175 90 262t297 87q107 0 195.5 -42t140.5 -114l-108 -152q-41 31 -88.5 40t-82 -12t-34.5 -69v-61h164l-21 -225h-143q0 -151 -11.5 -239.5t-30.5 -132.5t-60 -99h430 l-41 -328h-840z" />
<glyph unicode="&#xa4;" horiz-adv-x="1167" d="M20 451l21 204h82v41v41h-103l21 205h102q21 108 59.5 195t97.5 155t144.5 105t190.5 37q193 0 318 -121.5t173 -329.5l-368 -90q-17 112 -41.5 162.5t-81.5 50.5q-42 0 -63.5 -35.5t-30.5 -128.5h135l-21 -205h-123v-41v-41h144l-21 -204h-114q9 -89 31 -126.5t63 -37.5 q17 0 30 6t22.5 21t16 29t13 42t10.5 48t10 59l389 -82q-48 -208 -173 -329.5t-318 -121.5q-105 0 -190 37t-144 104t-97.5 155t-58.5 196h-125z" />
<glyph unicode="&#xa5;" horiz-adv-x="1105" d="M41 328v204h281l-41 123h-240v205h174l-174 533h410l102 -574l102 574h410l-174 -533h174v-205h-240l-41 -123h281v-204h-307v-328h-410v328h-307z" />
<glyph unicode="&#xa6;" horiz-adv-x="634" d="M164 0v594h307v-594h-307zM164 819v594h307v-594h-307z" />
<glyph unicode="&#xa7;" horiz-adv-x="1146" d="M41 676q0 122 61.5 217t139.5 149q-99 111 -99 248q0 164 120 256t310 92q265 0 422 -102l-94 -266q-62 46 -146.5 74t-160.5 28q-46 0 -64 -18t-18 -64q0 -28 33 -55.5t85 -54t115.5 -56.5t127 -71.5t115.5 -91.5t85 -123.5t33 -161.5q0 -116 -56.5 -209t-131.5 -150 q106 -122 106 -276q0 -109 -62 -189.5t-163 -119.5t-226 -39q-137 0 -253.5 42.5t-196.5 98.5l123 289q51 -51 143.5 -97t163.5 -46q102 0 102 81q0 33 -34 64t-88 58.5t-119.5 58.5t-131 72t-119.5 89t-88 119t-34 154zM369 737q0 -29 16.5 -55.5t54.5 -53.5t70 -46 t95 -52.5t97 -52.5q24 24 38 41t26 43t12 53q0 26 -13.5 50.5t-33.5 43.5t-55.5 42.5t-65.5 40t-78 43.5t-81 47q-27 -27 -41 -43.5t-27.5 -44.5t-13.5 -56z" />
<glyph unicode="&#xa8;" horiz-adv-x="880" d="M82 1188v287h287v-287h-287zM512 1188v287h287v-287h-287z" />
<glyph unicode="&#xa9;" horiz-adv-x="1351" d="M41 737q0 180 50 328.5t137 246t202 151t246 53.5t246 -53.5t202 -151t137 -246t50 -328.5t-50 -328.5t-137 -246t-202 -150.5t-246 -53t-246 53t-202 150.5t-137 246t-50 328.5zM246 737q0 -159 60 -294t159 -212t211 -77t211 77t159 212t60 294q0 254 -127.5 419 t-302.5 165t-302.5 -165t-127.5 -419zM328 737q0 132 43.5 242t124 175t180.5 65q117 0 206 -79.5t111 -238.5l-235 -61q-15 123 -82 123q-39 0 -57.5 -47.5t-18.5 -178.5q0 -134 19.5 -189.5t58.5 -55.5q35 0 51.5 26.5t24.5 89.5l250 -55q-30 -149 -115.5 -223t-212.5 -74 q-109 0 -189 65.5t-119.5 173t-39.5 242.5z" />
<glyph unicode="&#xaa;" horiz-adv-x="798" d="M82 369v245h614v-245h-614zM82 922q0 120 99 182.5t270 62.5q0 54 -12 68t-50 14q-123 0 -225 -61l-41 153q116 72 307 72q56 0 91.5 -4t72 -18t57 -40t33 -72t12.5 -112v-430h-245v74q-24 -41 -68 -67.5t-96 -26.5q-84 0 -144.5 52.5t-60.5 152.5zM328 946q0 -35 41 -35 q31 0 56.5 29t25.5 80q-123 0 -123 -74z" />
<glyph unicode="&#xab;" horiz-adv-x="972" d="M61 553l123 369h308l-123 -369l123 -369h-308zM471 553l123 369h307l-121 -371l121 -367h-307z" />
<glyph unicode="&#xac;" horiz-adv-x="1044" d="M82 471v307h881v-655h-287v348h-594z" />
<glyph unicode="&#xad;" horiz-adv-x="696" d="M82 471v307h532v-307h-532z" />
<glyph unicode="&#xae;" d="M82 993q0 130 35.5 232t97.5 164.5t142.5 94.5t174.5 32t174.5 -32t143 -94.5t98 -164.5t35.5 -232t-35.5 -232t-98 -164t-143 -94t-174.5 -32t-174.5 32t-142.5 94t-97.5 164t-35.5 232zM225 993q0 -183 88 -281t219 -98t219.5 98t88.5 281t-88.5 281t-219.5 98 t-219 -98t-88 -281zM358 737v533h195q92 0 143.5 -43.5t51.5 -120.5q0 -63 -19.5 -95.5t-62.5 -58.5l71 -215h-164l-51 205h-10v-205h-154zM512 1065q16 0 24.5 0.5t21.5 2.5t19.5 6t11.5 12t5 20t-5 20t-11.5 12t-19.5 6t-21.5 2.5t-24.5 0.5v-82z" />
<glyph unicode="&#xaf;" d="M82 1188v246h901v-246h-901z" />
<glyph unicode="&#xb0;" horiz-adv-x="675" d="M41 1178q0 123 87 210t210 87t210 -87t87 -210t-87 -210t-210 -87t-210 87t-87 210zM225 1178q0 -46 33.5 -79.5t79.5 -33.5t79.5 33.5t33.5 79.5t-33.5 79t-79.5 33t-79.5 -33t-33.5 -79z" />
<glyph unicode="&#xb1;" horiz-adv-x="1044" d="M82 0v307h881v-307h-881zM82 655v308h287v286h307v-286h287v-308h-287v-286h-307v286h-287z" />
<glyph unicode="&#xb2;" horiz-adv-x="716" d="M82 573v103q0 74 34 140.5t82 113t96 87t82 79t34 71.5t-8.5 47.5t-32.5 14.5q-47 0 -47 -103l-230 21q0 124 75.5 205.5t221.5 81.5q74 0 127.5 -22.5t82.5 -62t42.5 -85t13.5 -97.5q0 -62 -27.5 -116t-66.5 -90t-78 -66t-66.5 -60t-27.5 -57h266l-10 -205h-563z" />
<glyph unicode="&#xb3;" horiz-adv-x="737" d="M82 860l225 21q0 -54 20.5 -78.5t41.5 -24.5q63 0 63 70q0 55 -20 74.5t-64 19.5v164q44 0 59 11t15 50q0 28 -15 45t-38 17q-47 0 -47 -82l-222 20q0 122 72.5 194.5t216.5 72.5q127 0 196.5 -65t69.5 -161q0 -135 -98 -174q60 -24 89.5 -75t29.5 -140 q0 -125 -75 -195.5t-212 -70.5q-150 0 -228.5 82.5t-78.5 224.5z" />
<glyph unicode="&#xb4;" horiz-adv-x="552" d="M82 1188l82 287h307l-164 -287h-225z" />
<glyph unicode="&#xb5;" d="M72 -410v1516h387l2 -696q0 -63 16.5 -93t54.5 -30t55 28.5t17 94.5v696h389v-1106h-389v123q-62 -123 -143 -123v-410h-389z" />
<glyph unicode="&#xb6;" horiz-adv-x="1310" d="M41 1065q0 169 120.5 289.5t289.5 120.5h778v-1475h-328v1188h-123v-1188h-327v655q-169 0 -289.5 120.5t-120.5 289.5z" />
<glyph unicode="&#xb7;" horiz-adv-x="532" d="M82 532v369h369v-369h-369z" />
<glyph unicode="&#xb8;" horiz-adv-x="430" d="M41 -451q34 34 51 141t-10 187h266q15 -123 -28.5 -225t-135.5 -164z" />
<glyph unicode="&#xb9;" horiz-adv-x="552" d="M61 1085v226l123 82h246v-840h-266v594z" />
<glyph unicode="&#xba;" horiz-adv-x="798" d="M82 1065q0 89 27.5 158t73.5 109t101 60.5t115 20.5t115 -21t101.5 -62t74 -110t27.5 -155q0 -89 -27.5 -158t-74 -109t-101.5 -60.5t-115 -20.5t-115 20.5t-101 60.5t-73.5 109t-27.5 158zM102 369v245h615v-245h-615zM328 1065q0 -143 71 -143q72 0 72 143t-72 143 q-71 0 -71 -143z" />
<glyph unicode="&#xbb;" horiz-adv-x="972" d="M72 184l123 369l-123 369h307l123 -369l-123 -369h-307zM481 184l127 369l-127 369h307l123 -369l-123 -369h-307z" />
<glyph unicode="&#xbc;" horiz-adv-x="1474" d="M61 1085v226l123 82h246v-840h-266v594zM287 0l553 1393h286l-553 -1393h-286zM758 123l327 717h267v-533h61v-184h-61v-123h-267v123h-327zM993 307h92v225z" />
<glyph unicode="&#xbd;" horiz-adv-x="1556" d="M61 1085v226l123 82h246v-840h-266v594zM287 0l553 1393h286l-553 -1393h-286zM922 0v102q0 62 18 116t47 91.5t63.5 69.5t69.5 58t64 50t47 51t18 56q0 32 -8.5 46.5t-32.5 14.5q-61 0 -61 -102l-225 20q8 57 28 105.5t55.5 91t92.5 66.5t131 24t127.5 -22.5t82.5 -62 t42.5 -84.5t13.5 -97q0 -68 -27.5 -124t-66.5 -91t-78 -63t-66.5 -56t-27.5 -55h266l-10 -205h-563z" />
<glyph unicode="&#xbe;" horiz-adv-x="1658" d="M82 860l225 21q0 -54 20.5 -78.5t41.5 -24.5q63 0 63 70q0 55 -20 74.5t-64 19.5v164q44 0 59 11t15 50q0 28 -15 45t-38 17q-47 0 -47 -82l-222 20q0 122 72.5 194.5t216.5 72.5q127 0 196.5 -65t69.5 -161q0 -135 -98 -174q60 -24 89.5 -75t29.5 -140 q0 -125 -75 -195.5t-212 -70.5q-150 0 -228.5 82.5t-78.5 224.5zM471 0l553 1393h287l-553 -1393h-287zM942 123l328 717h266v-533h61v-184h-61v-123h-266v123h-328zM1178 307h92v225z" />
<glyph unicode="&#xbf;" horiz-adv-x="983" d="M41 -18q0 91 18 161t46 112.5t61.5 77.5t65.5 65.5t57 65.5t36 88t3 124h389q15 -96 7 -162t-34.5 -119.5t-61.5 -89t-73.5 -70.5t-70.5 -63.5t-53 -68.5t-21 -85q0 -62 18.5 -91t63.5 -29q126 0 102 225h348q15 -134 -15.5 -236.5t-97.5 -163.5t-157 -91.5t-201 -30.5 q-205 0 -317.5 109.5t-112.5 271.5zM328 799v307h389v-307h-389z" />
<glyph unicode="&#xc0;" horiz-adv-x="1146" d="M0 0l369 1475h409l369 -1475h-451l-20 184h-205l-20 -184h-451zM307 1884h307l82 -287h-225zM516 532h115l-45 369q-10 102 -11 123h-4q-2 -41 -10 -123z" />
<glyph unicode="&#xc1;" horiz-adv-x="1146" d="M0 0l369 1475h409l369 -1475h-451l-20 184h-205l-20 -184h-451zM451 1597l81 287h308l-164 -287h-225zM516 532h115l-45 369q-10 102 -11 123h-4q-2 -41 -10 -123z" />
<glyph unicode="&#xc2;" horiz-adv-x="1146" d="M0 0l369 1475h409l369 -1475h-451l-20 184h-205l-20 -184h-451zM246 1597l164 287h327l164 -287h-266l-62 164l-61 -164h-266zM516 532h115l-45 369q-10 102 -11 123h-4q-2 -41 -10 -123z" />
<glyph unicode="&#xc3;" horiz-adv-x="1146" d="M0 0l369 1475h409l369 -1475h-451l-20 184h-205l-20 -184h-451zM225 1597q0 39 0.5 59.5t2 53t4.5 49.5t9.5 41.5t15.5 37t23 28t32.5 22.5t43 12t54.5 5q39 0 104 -28.5t123 -56.5t80 -28q28 0 34.5 19t6.5 73h164q0 -39 -0.5 -59.5t-2 -53t-4.5 -49.5t-9.5 -41.5 t-15.5 -37t-23 -27.5t-32.5 -22t-43 -12t-54.5 -5q-47 0 -108 28.5t-115 56.5t-84 28q-28 0 -34.5 -19.5t-6.5 -73.5h-164zM516 532h115l-45 369q-10 102 -11 123h-4q-2 -41 -10 -123z" />
<glyph unicode="&#xc4;" horiz-adv-x="1146" d="M0 0l369 1475h409l369 -1475h-451l-20 184h-205l-20 -184h-451zM215 1597v287h287v-287h-287zM516 532h115l-45 369q-10 102 -11 123h-4q-2 -41 -10 -123zM645 1597v287h287v-287h-287z" />
<glyph unicode="&#xc5;" horiz-adv-x="1146" d="M0 0l369 1475h409l369 -1475h-451l-20 184h-205l-20 -184h-451zM379 1751q0 80 57.5 137.5t136.5 57.5t137 -58t58 -137t-58 -137t-137 -58t-136.5 57.5t-57.5 137.5zM502 1751q0 -29 21 -50.5t50 -21.5t50.5 21.5t21.5 50.5t-21.5 50.5t-50.5 21.5t-50 -21.5t-21 -50.5z M516 532h115l-45 369q-10 102 -11 123h-4q-2 -41 -10 -123z" />
<glyph unicode="&#xc6;" horiz-adv-x="1587" d="M0 0l578 1475h917l21 -369h-349v-184h308v-349h-308v-184h349l-21 -389h-758v184h-233l-53 -184h-451zM606 532h131v472h-4q-5 -50 -20 -103z" />
<glyph unicode="&#xc7;" horiz-adv-x="1148" d="M41 737q0 158 32.5 295.5t97.5 247t173.5 173t249.5 63.5q69 0 134 -15.5t129.5 -52t116 -91t90.5 -140t54 -191.5l-401 -84q-15 104 -42 154.5t-81 50.5q-123 0 -123 -410q0 -150 15.5 -242t41.5 -129.5t66 -37.5q53 0 79.5 50.5t43.5 153.5l411 -92q-48 -227 -185 -354 t-349 -127q-113 0 -206 41.5t-156.5 114t-107 172t-63.5 212t-20 238.5zM430 -451q34 34 51 141t-10 187h266q15 -123 -28.5 -225t-135.5 -164z" />
<glyph unicode="&#xc8;" horiz-adv-x="931" d="M82 0v1475h758l20 -369h-348v-184h307v-349h-307v-184h348l-20 -389h-758zM205 1884h307l82 -287h-225z" />
<glyph unicode="&#xc9;" horiz-adv-x="931" d="M82 0v1475h758l20 -369h-348v-184h307v-349h-307v-184h348l-20 -389h-758zM287 1597l82 287h307l-164 -287h-225z" />
<glyph unicode="&#xca;" horiz-adv-x="931" d="M82 0v1475h758l20 -369h-348v-184h307v-349h-307v-184h348l-20 -389h-758zM133 1597l164 287h328l163 -287h-266l-61 164l-62 -164h-266z" />
<glyph unicode="&#xcb;" horiz-adv-x="931" d="M82 0v1475h758l20 -369h-348v-184h307v-349h-307v-184h348l-20 -389h-758zM102 1597v287h287v-287h-287zM532 1597v287h287v-287h-287z" />
<glyph unicode="&#xcc;" horiz-adv-x="593" d="M20 1884h308l82 -287h-226zM82 0v1475h430v-1475h-430z" />
<glyph unicode="&#xcd;" horiz-adv-x="593" d="M82 0v1475h430v-1475h-430zM184 1597l82 287h307l-163 -287h-226z" />
<glyph unicode="&#xce;" horiz-adv-x="593" d="M-31 1597l164 287h328l164 -287h-267l-61 164l-61 -164h-267zM82 0v1475h430v-1475h-430z" />
<glyph unicode="&#xcf;" horiz-adv-x="593" d="M-61 1597v287h286v-287h-286zM82 0v1475h430v-1475h-430zM369 1597v287h286v-287h-286z" />
<glyph unicode="&#xd0;" horiz-adv-x="1187" d="M-20 614l20 246h102v615h533q181 0 301.5 -91.5t175.5 -254t55 -392.5q0 -362 -134 -549.5t-419 -187.5h-512v614h-122zM532 369q55 0 92 15.5t59.5 42t34.5 75.5t15.5 101t3.5 134q0 69 -3.5 118t-16 99.5t-34 81.5t-59.5 50.5t-92 19.5v-246h123l-20 -246h-103v-245z " />
<glyph unicode="&#xd1;" horiz-adv-x="1249" d="M82 0v1475h410l215 -594q20 -62 26 -93h4v687h430v-1475h-409l-215 594q-20 54 -27 92h-4v-686h-430zM276 1597q0 39 0.5 59.5t2 53t4.5 49.5t9.5 41.5t15.5 37t23 28t32.5 22.5t43 12t54.5 5q39 0 104 -28.5t123 -56.5t80 -28q28 0 34.5 19t6.5 73h164q0 -39 -0.5 -59.5 t-2 -53t-4.5 -49.5t-9.5 -41.5t-15.5 -37t-23 -27.5t-32.5 -22t-43 -12t-54.5 -5q-47 0 -108 28.5t-115 56.5t-84 28q-28 0 -34.5 -19.5t-6.5 -73.5h-164z" />
<glyph unicode="&#xd2;" horiz-adv-x="1208" d="M41 737q0 236 64.5 410.5t192.5 271.5t306 97q269 0 416 -209.5t147 -569.5q0 -236 -64.5 -410.5t-192.5 -271t-308 -96.5q-267 0 -414 209.5t-147 568.5zM328 1884h307l82 -287h-225zM471 737q0 -218 30 -313.5t103 -95.5q74 0 103.5 95t29.5 314q0 220 -29.5 315 t-103.5 95q-73 0 -103 -96t-30 -314z" />
<glyph unicode="&#xd3;" horiz-adv-x="1208" d="M41 737q0 236 64.5 410.5t192.5 271.5t306 97q269 0 416 -209.5t147 -569.5q0 -236 -64.5 -410.5t-192.5 -271t-308 -96.5q-267 0 -414 209.5t-147 568.5zM471 737q0 -218 30 -313.5t103 -95.5q74 0 103.5 95t29.5 314q0 220 -29.5 315t-103.5 95q-73 0 -103 -96 t-30 -314zM492 1597l81 287h308l-164 -287h-225z" />
<glyph unicode="&#xd4;" horiz-adv-x="1208" d="M41 737q0 236 64.5 410.5t192.5 271.5t306 97q269 0 416 -209.5t147 -569.5q0 -236 -64.5 -410.5t-192.5 -271t-308 -96.5q-267 0 -414 209.5t-147 568.5zM276 1597l164 287h328l164 -287h-266l-62 164l-61 -164h-267zM471 737q0 -218 30 -313.5t103 -95.5q74 0 103.5 95 t29.5 314q0 220 -29.5 315t-103.5 95q-73 0 -103 -96t-30 -314z" />
<glyph unicode="&#xd5;" horiz-adv-x="1208" d="M41 737q0 236 64.5 410.5t192.5 271.5t306 97q269 0 416 -209.5t147 -569.5q0 -236 -64.5 -410.5t-192.5 -271t-308 -96.5q-267 0 -414 209.5t-147 568.5zM256 1597v59.5t2 53t5 50t9 41.5t15.5 37t23 27.5t32 22.5t43 12t54.5 5q51 0 168 -56.5t140 -56.5q15 0 23 4.5 t12 18.5t4.5 25.5t0.5 39.5v4h164q0 -71 -1.5 -104.5t-10.5 -81t-27.5 -68.5t-54.5 -37t-90 -16q-47 0 -108 28.5t-115 56.5t-84 28q-28 0 -34.5 -19.5t-6.5 -73.5h-164zM471 737q0 -218 30 -313.5t103 -95.5q74 0 103.5 95t29.5 314q0 220 -29.5 315t-103.5 95 q-73 0 -103 -96t-30 -314z" />
<glyph unicode="&#xd6;" horiz-adv-x="1208" d="M41 737q0 236 64.5 410.5t192.5 271.5t306 97q269 0 416 -209.5t147 -569.5q0 -236 -64.5 -410.5t-192.5 -271t-308 -96.5q-267 0 -414 209.5t-147 568.5zM246 1597v287h286v-287h-286zM471 737q0 -218 30 -313.5t103 -95.5q74 0 103.5 95t29.5 314q0 220 -29.5 315 t-103.5 95q-73 0 -103 -96t-30 -314zM676 1597v287h287v-287h-287z" />
<glyph unicode="&#xd7;" horiz-adv-x="1044" d="M43 414l240 239l-240 240l240 240l239 -240l240 240l239 -240l-239 -240l239 -239l-239 -240l-240 240l-239 -240z" />
<glyph unicode="&#xd8;" horiz-adv-x="1208" d="M41 41l119 172q-119 200 -119 524q0 236 64.5 410.5t192.5 271.5t306 97q219 0 363 -144l98 144l102 -82l-118 -172q118 -201 118 -525q0 -236 -64.5 -410.5t-192.5 -271t-308 -96.5q-217 0 -360 143l-99 -143zM471 659l246 355q-26 133 -113 133q-73 0 -103 -96 t-30 -314v-78zM492 461q15 -69 42 -101t70 -32q74 0 103.5 95t29.5 314v78z" />
<glyph unicode="&#xd9;" horiz-adv-x="1208" d="M72 492v983h430v-983q0 -83 22 -123.5t80 -40.5t80.5 41t22.5 123v983h430v-983q0 -273 -134 -403t-399 -130t-398.5 130t-133.5 403zM328 1884h307l82 -287h-225z" />
<glyph unicode="&#xda;" horiz-adv-x="1208" d="M72 492v983h430v-983q0 -83 22 -123.5t80 -40.5t80.5 41t22.5 123v983h430v-983q0 -273 -134 -403t-399 -130t-398.5 130t-133.5 403zM492 1597l81 287h308l-164 -287h-225z" />
<glyph unicode="&#xdb;" horiz-adv-x="1208" d="M72 492v983h430v-983q0 -83 22 -123.5t80 -40.5t80.5 41t22.5 123v983h430v-983q0 -273 -134 -403t-399 -130t-398.5 130t-133.5 403zM276 1597l164 287h328l164 -287h-266l-62 164l-61 -164h-267z" />
<glyph unicode="&#xdc;" horiz-adv-x="1208" d="M72 492v983h430v-983q0 -83 22 -123.5t80 -40.5t80.5 41t22.5 123v983h430v-983q0 -273 -134 -403t-399 -130t-398.5 130t-133.5 403zM246 1597v287h286v-287h-286zM676 1597v287h287v-287h-287z" />
<glyph unicode="&#xdd;" horiz-adv-x="1085" d="M-10 1475h440l94 -533q10 -51 17 -123h4q8 82 16 123l94 533h441l-338 -1004v-471h-430v471zM430 1597l82 287h307l-164 -287h-225z" />
<glyph unicode="&#xde;" horiz-adv-x="1126" d="M82 0v1475h430v-226h82q127 0 229.5 -39t167.5 -107t100 -156t35 -189q0 -127 -50 -229t-134 -163.5t-195.5 -88t-234.5 -11.5v-266h-430zM512 594q109 0 157 36.5t48 127.5t-48 127.5t-157 36.5v-328z" />
<glyph unicode="&#xdf;" horiz-adv-x="1075" d="M72 0v1126q0 162 125 270.5t346 108.5q199 0 314.5 -92t115.5 -246q0 -66 -13.5 -115.5t-37.5 -80.5t-48.5 -49t-56.5 -31q94 -25 155.5 -128.5t61.5 -279.5q0 -229 -93.5 -356t-274.5 -127h-144v328q62 0 92.5 49t30.5 155t-30.5 155.5t-92.5 49.5v246q35 0 58.5 20 t23.5 62q0 64 -16 93.5t-56 29.5t-55.5 -29.5t-15.5 -93.5l-2 -1065h-387z" />
<glyph unicode="&#xe0;" horiz-adv-x="1075" d="M41 287q0 185 156.5 297t416.5 112q0 91 -19.5 117.5t-82.5 26.5q-64 0 -151.5 -32t-176.5 -91l-82 287q84 70 226 101.5t286 31.5q72 0 122 -5.5t97 -21.5t76.5 -45t52 -75t32.5 -113.5t10 -159.5v-717h-390v123h-4q-42 -76 -115 -115t-167 -39q-130 0 -208.5 79.5 t-78.5 238.5zM328 1475h307l82 -287h-225zM410 348q0 -61 61 -61q53 0 98 53.5t45 151.5q-103 0 -153.5 -39.5t-50.5 -104.5z" />
<glyph unicode="&#xe1;" horiz-adv-x="1075" d="M41 287q0 185 156.5 297t416.5 112q0 91 -19.5 117.5t-82.5 26.5q-64 0 -151.5 -32t-176.5 -91l-82 287q84 70 226 101.5t286 31.5q72 0 122 -5.5t97 -21.5t76.5 -45t52 -75t32.5 -113.5t10 -159.5v-717h-390v123h-4q-42 -76 -115 -115t-167 -39q-130 0 -208.5 79.5 t-78.5 238.5zM389 1188l82 287h307l-164 -287h-225zM410 348q0 -61 61 -61q53 0 98 53.5t45 151.5q-103 0 -153.5 -39.5t-50.5 -104.5z" />
<glyph unicode="&#xe2;" horiz-adv-x="1075" d="M41 287q0 185 156.5 297t416.5 112q0 91 -19.5 117.5t-82.5 26.5q-64 0 -151.5 -32t-176.5 -91l-82 287q84 70 226 101.5t286 31.5q72 0 122 -5.5t97 -21.5t76.5 -45t52 -75t32.5 -113.5t10 -159.5v-717h-390v123h-4q-42 -76 -115 -115t-167 -39q-130 0 -208.5 79.5 t-78.5 238.5zM246 1188l164 287h327l164 -287h-266l-62 164l-61 -164h-266zM410 348q0 -61 61 -61q53 0 98 53.5t45 151.5q-103 0 -153.5 -39.5t-50.5 -104.5z" />
<glyph unicode="&#xe3;" horiz-adv-x="1075" d="M41 287q0 185 156.5 297t416.5 112q0 91 -19.5 117.5t-82.5 26.5q-64 0 -151.5 -32t-176.5 -91l-82 287q84 70 226 101.5t286 31.5q72 0 122 -5.5t97 -21.5t76.5 -45t52 -75t32.5 -113.5t10 -159.5v-717h-390v123h-4q-42 -76 -115 -115t-167 -39q-130 0 -208.5 79.5 t-78.5 238.5zM205 1188q0 71 1.5 104.5t10.5 81t27.5 68.5t54.5 37t90 16q39 0 104 -28.5t123 -56.5t80 -28q28 0 34.5 19.5t6.5 73.5h164v-59.5t-2 -53t-5 -50t-9 -41.5t-15.5 -37t-23 -27.5t-32 -22.5t-43 -12t-54.5 -5q-47 0 -108 28.5t-115 56.5t-84 28q-28 0 -34.5 -19 t-6.5 -73h-164zM410 348q0 -61 61 -61q53 0 98 53.5t45 151.5q-103 0 -153.5 -39.5t-50.5 -104.5z" />
<glyph unicode="&#xe4;" horiz-adv-x="1075" d="M41 287q0 185 156.5 297t416.5 112q0 91 -19.5 117.5t-82.5 26.5q-64 0 -151.5 -32t-176.5 -91l-82 287q84 70 226 101.5t286 31.5q72 0 122 -5.5t97 -21.5t76.5 -45t52 -75t32.5 -113.5t10 -159.5v-717h-390v123h-4q-42 -76 -115 -115t-167 -39q-130 0 -208.5 79.5 t-78.5 238.5zM205 1188v287h287v-287h-287zM410 348q0 -61 61 -61q53 0 98 53.5t45 151.5q-103 0 -153.5 -39.5t-50.5 -104.5zM635 1188v287h287v-287h-287z" />
<glyph unicode="&#xe5;" horiz-adv-x="1075" d="M41 287q0 185 156.5 297t416.5 112q0 91 -19.5 117.5t-82.5 26.5q-64 0 -151.5 -32t-176.5 -91l-82 287q84 70 226 101.5t286 31.5q72 0 122 -5.5t97 -21.5t76.5 -45t52 -75t32.5 -113.5t10 -159.5v-717h-390v123h-4q-42 -76 -115 -115t-167 -39q-130 0 -208.5 79.5 t-78.5 238.5zM389 1382q0 80 57.5 137.5t137.5 57.5q79 0 136.5 -57.5t57.5 -137.5t-57 -137t-137 -57t-137.5 57.5t-57.5 136.5zM410 348q0 -61 61 -61q53 0 98 53.5t45 151.5q-103 0 -153.5 -39.5t-50.5 -104.5zM512 1382q0 -29 21.5 -50t50.5 -21t50 21t21 50t-21 50.5 t-50 21.5t-50.5 -21.5t-21.5 -50.5z" />
<glyph unicode="&#xe6;" horiz-adv-x="1576" d="M41 287q0 183 147 275.5t426 92.5q0 98 -21.5 141.5t-80.5 43.5q-64 0 -151.5 -32t-176.5 -91l-82 287q84 70 226 101.5t286 31.5q139 0 246 -72q107 72 225 72q90 0 168.5 -30.5t143 -91.5t102 -164.5t37.5 -236.5v-163h-532q0 -110 18 -157.5t63 -47.5q36 0 55 26 t27 76l338 -102q-67 -135 -164.5 -206t-255.5 -71q-245 0 -370 185q-31 -44 -61.5 -74.5t-75.5 -57t-107.5 -40t-142.5 -13.5q-127 0 -207 84t-80 234zM410 307q0 -61 61 -61q52 0 97.5 49.5t45.5 134.5q-106 0 -155 -30.5t-49 -92.5zM1004 655h163q0 91 -21.5 138t-60.5 47 q-81 0 -81 -185z" />
<glyph unicode="&#xe7;" horiz-adv-x="921" d="M41 553q0 149 37 263.5t103 183t149 103t182 34.5q69 0 128.5 -19.5t100.5 -49.5t74.5 -71t52.5 -78.5t33 -78.5l-307 -121q-8 53 -27 76.5t-55 23.5q-82 0 -82 -266q0 -146 21 -206t61 -60q36 0 55 26t27 76l328 -102q-20 -55 -41.5 -96.5t-55.5 -85.5t-75.5 -72 t-102.5 -46t-135 -18q-99 0 -182 34.5t-149 103t-103 183t-37 263.5zM328 -440q34 34 51 140.5t-10 186.5h266q15 -123 -28.5 -225t-135.5 -164z" />
<glyph unicode="&#xe8;" horiz-adv-x="1003" d="M41 553q0 120 23.5 217.5t65.5 165.5t101.5 113.5t129.5 66.5t151 21q90 0 168.5 -30.5t143 -91.5t102 -164.5t37.5 -236.5v-184h-533q0 -95 18.5 -139.5t63.5 -44.5q36 0 55 26t27 76l338 -102q-67 -135 -164.5 -206t-255.5 -71q-81 0 -151 21t-129.5 66.5t-101.5 113.5 t-65.5 165.5t-23.5 217.5zM246 1475h307l82 -287h-225zM430 635h164q0 205 -82 205t-82 -205z" />
<glyph unicode="&#xe9;" horiz-adv-x="1003" d="M41 553q0 120 23.5 217.5t65.5 165.5t101.5 113.5t129.5 66.5t151 21q90 0 168.5 -30.5t143 -91.5t102 -164.5t37.5 -236.5v-184h-533q0 -95 18.5 -139.5t63.5 -44.5q36 0 55 26t27 76l338 -102q-67 -135 -164.5 -206t-255.5 -71q-81 0 -151 21t-129.5 66.5t-101.5 113.5 t-65.5 165.5t-23.5 217.5zM389 1188l82 287h307l-164 -287h-225zM430 635h164q0 205 -82 205t-82 -205z" />
<glyph unicode="&#xea;" horiz-adv-x="1003" d="M41 553q0 120 23.5 217.5t65.5 165.5t101.5 113.5t129.5 66.5t151 21q90 0 168.5 -30.5t143 -91.5t102 -164.5t37.5 -236.5v-184h-533q0 -95 18.5 -139.5t63.5 -44.5q36 0 55 26t27 76l338 -102q-67 -135 -164.5 -206t-255.5 -71q-81 0 -151 21t-129.5 66.5t-101.5 113.5 t-65.5 165.5t-23.5 217.5zM184 1188l164 287h328l164 -287h-267l-61 164l-61 -164h-267zM430 635h164q0 205 -82 205t-82 -205z" />
<glyph unicode="&#xeb;" horiz-adv-x="1003" d="M41 553q0 120 23.5 217.5t65.5 165.5t101.5 113.5t129.5 66.5t151 21q90 0 168.5 -30.5t143 -91.5t102 -164.5t37.5 -236.5v-184h-533q0 -95 18.5 -139.5t63.5 -44.5q36 0 55 26t27 76l338 -102q-67 -135 -164.5 -206t-255.5 -71q-81 0 -151 21t-129.5 66.5t-101.5 113.5 t-65.5 165.5t-23.5 217.5zM154 1188v287h286v-287h-286zM430 635h164q0 205 -82 205t-82 -205zM584 1188v287h286v-287h-286z" />
<glyph unicode="&#xec;" horiz-adv-x="532" d="M0 1475h307l82 -287h-225zM72 0v1106h389v-1106h-389z" />
<glyph unicode="&#xed;" horiz-adv-x="532" d="M72 0v1106h389v-1106h-389zM143 1188l82 287h307l-163 -287h-226z" />
<glyph unicode="&#xee;" horiz-adv-x="532" d="M-61 1188l163 287h328l164 -287h-266l-62 164l-61 -164h-266zM82 0v1106h389v-1106h-389z" />
<glyph unicode="&#xef;" horiz-adv-x="532" d="M-92 1188v287h287v-287h-287zM82 0v1106h389v-1106h-389zM338 1188v287h287v-287h-287z" />
<glyph unicode="&#xf0;" horiz-adv-x="1075" d="M41 553q0 148 28 263.5t75 183.5t104 102.5t121 34.5q153 0 245 -154v225h-225l21 226h204v61h390v-61h61l-21 -226h-40v-1208h-390v123q-92 -154 -245 -154q-64 0 -121 34.5t-104 102.5t-75 183.5t-28 263.5zM451 553q0 -88 6.5 -148t19 -88.5t25.5 -39.5t30 -11 q24 0 40 17.5t29 84.5t13 185q0 88 -6.5 148t-19 88.5t-26 39.5t-30.5 11t-30 -11t-25.5 -39.5t-19 -88.5t-6.5 -148z" />
<glyph unicode="&#xf1;" d="M72 0v1106h389v-123h4q50 72 120 113t183 41q33 0 62.5 -7t60.5 -26t52.5 -49t35.5 -80t14 -115v-860h-389v696q0 123 -72 123q-38 0 -54.5 -30t-16.5 -93v-696h-389zM164 1188q0 71 1.5 104.5t10.5 81t27.5 68.5t54.5 37t90 16q39 0 104 -28.5t123 -56.5t80 -28 q28 0 34.5 19.5t6.5 73.5h164v-59.5t-2 -53t-5 -50t-9 -41.5t-15.5 -37t-23 -27.5t-32 -22.5t-43 -12t-54.5 -5q-47 0 -108 28.5t-115 56.5t-84 28q-28 0 -34.5 -19t-6.5 -73h-164z" />
<glyph unicode="&#xf2;" horiz-adv-x="1024" d="M41 553q0 149 37 263.5t103 183t149 103t182 34.5t182 -34.5t149 -103t103 -183t37 -263.5t-37 -263.5t-103 -183t-149 -103t-182 -34.5t-182 34.5t-149 103t-103 183t-37 263.5zM246 1475h307l82 -287h-225zM430 553q-1 -151 17 -208.5t65 -57.5t65 57.5t17 208.5 q-1 154 -18.5 210t-63.5 56t-63.5 -56t-18.5 -210z" />
<glyph unicode="&#xf3;" horiz-adv-x="1024" d="M41 553q0 149 37 263.5t103 183t149 103t182 34.5t182 -34.5t149 -103t103 -183t37 -263.5t-37 -263.5t-103 -183t-149 -103t-182 -34.5t-182 34.5t-149 103t-103 183t-37 263.5zM389 1188l82 287h307l-164 -287h-225zM430 553q-1 -151 17 -208.5t65 -57.5t65 57.5 t17 208.5q-1 154 -18.5 210t-63.5 56t-63.5 -56t-18.5 -210z" />
<glyph unicode="&#xf4;" horiz-adv-x="1024" d="M41 553q0 149 37 263.5t103 183t149 103t182 34.5t182 -34.5t149 -103t103 -183t37 -263.5t-37 -263.5t-103 -183t-149 -103t-182 -34.5t-182 34.5t-149 103t-103 183t-37 263.5zM184 1188l164 287h328l164 -287h-267l-61 164l-61 -164h-267zM430 553q-1 -151 17 -208.5 t65 -57.5t65 57.5t17 208.5q-1 154 -18.5 210t-63.5 56t-63.5 -56t-18.5 -210z" />
<glyph unicode="&#xf5;" horiz-adv-x="1024" d="M41 553q0 149 37 263.5t103 183t149 103t182 34.5t182 -34.5t149 -103t103 -183t37 -263.5t-37 -263.5t-103 -183t-149 -103t-182 -34.5t-182 34.5t-149 103t-103 183t-37 263.5zM164 1188q0 71 1.5 104.5t10.5 81t27.5 68.5t54.5 37t90 16q39 0 104 -28.5t123 -56.5 t80 -28q28 0 34.5 19.5t6.5 73.5h164v-59.5t-2 -53t-5 -50t-9 -41.5t-15.5 -37t-23 -27.5t-32 -22.5t-43 -12t-54.5 -5q-47 0 -108 28.5t-115 56.5t-84 28q-28 0 -34.5 -19t-6.5 -73h-164zM430 553q-1 -151 17 -208.5t65 -57.5t65 57.5t17 208.5q-1 154 -18.5 210t-63.5 56 t-63.5 -56t-18.5 -210z" />
<glyph unicode="&#xf6;" horiz-adv-x="1024" d="M41 553q0 149 37 263.5t103 183t149 103t182 34.5t182 -34.5t149 -103t103 -183t37 -263.5t-37 -263.5t-103 -183t-149 -103t-182 -34.5t-182 34.5t-149 103t-103 183t-37 263.5zM154 1188v287h286v-287h-286zM430 553q-1 -151 17 -208.5t65 -57.5t65 57.5t17 208.5 q-1 154 -18.5 210t-63.5 56t-63.5 -56t-18.5 -210zM584 1188v287h286v-287h-286z" />
<glyph unicode="&#xf7;" horiz-adv-x="1044" d="M82 471v307h881v-307h-881zM369 41v307h307v-307h-307zM369 922v307h307v-307h-307z" />
<glyph unicode="&#xf8;" horiz-adv-x="1024" d="M41 41l96 125q-96 146 -96 387q0 149 37 263.5t103 183t149 103t182 34.5q183 0 303 -111l86 111l82 -72l-96 -125q96 -145 96 -387q0 -149 -37 -263.5t-103 -183t-149 -103t-182 -34.5q-183 0 -303 111l-86 -111zM430 537l154 194q-9 48 -26 68t-46 20q-46 0 -64 -59 t-18 -223zM440 373q9 -46 26.5 -66t45.5 -20q46 0 64 59t18 223z" />
<glyph unicode="&#xf9;" d="M72 246v860h389v-696q0 -63 16.5 -93t54.5 -30q72 0 72 123v696h389v-1106h-389v123h-4q-50 -72 -120 -113t-183 -41q-33 0 -62.5 7t-60.5 26t-52.5 49t-35.5 80t-14 115zM266 1475h307l82 -287h-225z" />
<glyph unicode="&#xfa;" d="M72 246v860h389v-696q0 -63 16.5 -93t54.5 -30q72 0 72 123v696h389v-1106h-389v123h-4q-50 -72 -120 -113t-183 -41q-33 0 -62.5 7t-60.5 26t-52.5 49t-35.5 80t-14 115zM389 1188l82 287h307l-164 -287h-225z" />
<glyph unicode="&#xfb;" d="M72 246v860h389v-696q0 -63 16.5 -93t54.5 -30q72 0 72 123v696h389v-1106h-389v123h-4q-50 -72 -120 -113t-183 -41q-33 0 -62.5 7t-60.5 26t-52.5 49t-35.5 80t-14 115zM195 1188l163 287h328l164 -287h-266l-62 164l-61 -164h-266z" />
<glyph unicode="&#xfc;" d="M72 246v860h389v-696q0 -63 16.5 -93t54.5 -30q72 0 72 123v696h389v-1106h-389v123h-4q-50 -72 -120 -113t-183 -41q-33 0 -62.5 7t-60.5 26t-52.5 49t-35.5 80t-14 115zM164 1188v287h287v-287h-287zM594 1188v287h287v-287h-287z" />
<glyph unicode="&#xfd;" horiz-adv-x="901" d="M-10 1106h368l64 -287q16 -82 20 -123h4q7 51 25 123l72 287h368l-389 -1516h-368l131 521zM328 1188l82 287h307l-164 -287h-225z" />
<glyph unicode="&#xfe;" horiz-adv-x="1075" d="M72 -410v1905h389v-512q92 154 246 154q64 0 121 -34.5t104 -102.5t74.5 -183.5t27.5 -263.5t-27.5 -263.5t-74.5 -183.5t-104 -102.5t-121 -34.5q-154 0 -246 154v-533h-389zM461 553q0 -118 13 -185t29 -84.5t40 -17.5q17 0 30.5 11t26 39.5t19 88.5t6.5 148t-6.5 148 t-19 88.5t-26 39.5t-30.5 11t-30.5 -11t-26 -39.5t-19 -88.5t-6.5 -148z" />
<glyph unicode="&#xff;" horiz-adv-x="901" d="M-10 1106h368l64 -287q16 -82 20 -123h4q7 51 25 123l72 287h368l-389 -1516h-368l131 521zM102 1188v287h287v-287h-287zM532 1188v287h287v-287h-287z" />
<glyph unicode="&#x152;" horiz-adv-x="1587" d="M41 737q0 236 64.5 410.5t192.5 271.5t306 97q115 0 211 -41h680l21 -369h-369l20 -184h308v-349h-308l-20 -184h369l-21 -389h-684q-93 -41 -209 -41q-267 0 -414 209.5t-147 568.5zM471 737q0 -218 30 -313.5t103 -95.5q74 0 103.5 95t29.5 314q0 220 -29.5 315 t-103.5 95q-73 0 -103 -96t-30 -314z" />
<glyph unicode="&#x153;" horiz-adv-x="1556" d="M41 553q0 149 37 263.5t103 183t149 103t182 34.5q160 0 274 -86q114 86 279 86q90 0 168.5 -30.5t143 -91.5t102 -164.5t37.5 -236.5v-184h-533q0 -95 18.5 -139.5t63.5 -44.5q36 0 55 26t27 76l338 -102q-67 -135 -164.5 -206t-255.5 -71q-165 0 -279 86 q-114 -86 -274 -86q-99 0 -182 34.5t-149 103t-103 183t-37 263.5zM430 553q-1 -151 17 -208.5t65 -57.5t65 57.5t17 208.5q-1 154 -18.5 210t-63.5 56t-63.5 -56t-18.5 -210zM983 635h164q0 205 -82 205t-82 -205z" />
<glyph unicode="&#x178;" horiz-adv-x="1085" d="M-10 1475h440l94 -533q10 -51 17 -123h4q8 82 16 123l94 533h441l-338 -1004v-471h-430v471zM184 1597v287h287v-287h-287zM614 1597v287h287v-287h-287z" />
<glyph unicode="&#x2c6;" horiz-adv-x="819" d="M82 1188l164 287h327l164 -287h-266l-61 164l-62 -164h-266z" />
<glyph unicode="&#x2dc;" horiz-adv-x="860" d="M82 1188q0 71 1.5 104.5t10.5 81t27.5 68.5t54.5 37t90 16q39 0 104 -28.5t123 -56.5t80 -28q28 0 34.5 19.5t6.5 73.5h164v-59.5t-2 -53t-5 -50t-9 -41.5t-15.5 -37t-23 -27.5t-32 -22.5t-43 -12t-54.5 -5q-47 0 -108 28.5t-115 56.5t-84 28q-28 0 -34.5 -19t-6.5 -73 h-164z" />
<glyph unicode="&#x2000;" horiz-adv-x="973" />
<glyph unicode="&#x2001;" horiz-adv-x="1946" />
<glyph unicode="&#x2002;" horiz-adv-x="973" />
<glyph unicode="&#x2003;" horiz-adv-x="1946" />
<glyph unicode="&#x2004;" horiz-adv-x="648" />
<glyph unicode="&#x2005;" horiz-adv-x="486" />
<glyph unicode="&#x2006;" horiz-adv-x="324" />
<glyph unicode="&#x2007;" horiz-adv-x="324" />
<glyph unicode="&#x2008;" horiz-adv-x="243" />
<glyph unicode="&#x2009;" horiz-adv-x="389" />
<glyph unicode="&#x200a;" horiz-adv-x="108" />
<glyph unicode="&#x2010;" horiz-adv-x="696" d="M82 471v307h532v-307h-532z" />
<glyph unicode="&#x2011;" horiz-adv-x="696" d="M82 471v307h532v-307h-532z" />
<glyph unicode="&#x2012;" horiz-adv-x="696" d="M82 471v307h532v-307h-532z" />
<glyph unicode="&#x2013;" horiz-adv-x="1228" d="M82 471v307h1065v-307h-1065z" />
<glyph unicode="&#x2014;" horiz-adv-x="2293" d="M82 471v307h2130v-307h-2130z" />
<glyph unicode="&#x2018;" horiz-adv-x="593" d="M82 942v369q0 65 17 123.5t42 102t66 87t76.5 72.5t85.5 65l184 -164q-102 -102 -102 -286v-369h-369z" />
<glyph unicode="&#x2019;" horiz-adv-x="593" d="M41 819q102 102 102 287v369h369v-369q0 -65 -17 -124t-42 -102.5t-66 -87t-76.5 -72.5t-85.5 -65z" />
<glyph unicode="&#x201a;" horiz-adv-x="593" d="M41 -287q102 102 102 287v369h369v-369q0 -65 -17 -124t-42 -102.5t-66 -87t-76.5 -72.5t-85.5 -65z" />
<glyph unicode="&#x201c;" horiz-adv-x="1126" d="M82 942v369q0 65 17 123.5t42 102t66 87t76.5 72.5t85.5 65l184 -164q-102 -102 -102 -286v-369h-369zM614 942v369q0 65 17 123.5t42 102t66 87t76.5 72.5t85.5 65l184 -164q-102 -102 -102 -286v-369h-369z" />
<glyph unicode="&#x201d;" horiz-adv-x="1126" d="M41 819q102 102 102 287v369h369v-369q0 -65 -17 -124t-42 -102.5t-66 -87t-76.5 -72.5t-85.5 -65zM573 819q103 103 103 287v369h368v-369q0 -81 -23 -149.5t-68 -124t-88.5 -94t-106.5 -83.5z" />
<glyph unicode="&#x201e;" horiz-adv-x="1126" d="M41 -287q102 102 102 287v369h369v-369q0 -65 -17 -124t-42 -102.5t-66 -87t-76.5 -72.5t-85.5 -65zM573 -287q103 103 103 287v369h368v-369q0 -81 -23 -149.5t-68 -124t-88.5 -94t-106.5 -83.5z" />
<glyph unicode="&#x2022;" horiz-adv-x="942" d="M41 707q0 117 57.5 216t156.5 156.5t216 57.5t216 -57.5t156.5 -156.5t57.5 -216q0 -179 -126 -305t-304 -126t-304 126t-126 305z" />
<glyph unicode="&#x2026;" horiz-adv-x="2007" d="M82 0v369h369v-369h-369zM819 0v369h369v-369h-369zM1556 0v369h369v-369h-369z" />
<glyph unicode="&#x202f;" horiz-adv-x="389" />
<glyph unicode="&#x2039;" horiz-adv-x="563" d="M61 553l123 369h308l-123 -369l123 -369h-308z" />
<glyph unicode="&#x203a;" horiz-adv-x="563" d="M72 184l123 369l-123 369h307l123 -369l-123 -369h-307z" />
<glyph unicode="&#x205f;" horiz-adv-x="486" />
<glyph unicode="&#x2122;" horiz-adv-x="1392" d="M41 1270l20 205h471l21 -205h-143v-451h-226v451h-143zM614 819v656h226l123 -185l122 185h226v-656h-226v307l-122 -184l-123 184v-307h-226z" />
<glyph unicode="&#x25fc;" horiz-adv-x="1105" d="M0 0v1106h1106v-1106h-1106z" />
<glyph unicode="&#xfb01;" horiz-adv-x="1167" d="M10 778l41 328h62q0 71 11 127t39 106.5t73.5 83.5t117.5 52.5t168 19.5h103v-287q-76 0 -99.5 -20t-23.5 -82h594v-1106h-389v778h-205v-778h-389v778h-103zM707 1188v287h389v-287h-389z" />
<glyph unicode="&#xfb02;" horiz-adv-x="1167" d="M10 778l41 328h62q0 71 11 127t39 106.5t73.5 83.5t117.5 52.5t168 19.5h574v-1495h-389v1208h-82q-76 0 -99.5 -20t-23.5 -82h123v-328h-123v-778h-389v778h-103z" />
</font>
</defs>
</svg>
