<?xml version="1.0" standalone="no"?>
<!DOCTYPE svg PUBLIC "-//W3C//DTD SVG 1.1//EN" "http://www.w3.org/Graphics/SVG/1.1/DTD/svg11.dtd" >
<svg xmlns="http://www.w3.org/2000/svg" xmlns:xlink="http://www.w3.org/1999/xlink" version="1.1">
<metadata></metadata>
<defs>
<font id="rubikmedium" horiz-adv-x="1171" >
<font-face units-per-em="2048" ascent="1638" descent="-410" />
<missing-glyph horiz-adv-x="466" />
<glyph unicode="&#xfb01;" horiz-adv-x="1261" d="M35 895v121q0 20 14 34.5t35 14.5h166v82q0 186 100.5 277.5t302.5 91.5h424q23 0 36 -13.5t13 -36.5v-120q0 -20 -14 -35t-35 -15h-413q-80 0 -113 -38.5t-33 -120.5v-72h559q23 0 36 -13.5t13 -35.5v-967q0 -20 -13 -34.5t-36 -14.5h-170q-20 0 -34.5 14.5t-14.5 34.5 v797h-340v-797q0 -20 -13 -34.5t-36 -14.5h-170q-20 0 -34.5 14.5t-14.5 34.5v797h-166q-20 0 -34.5 14t-14.5 35z" />
<glyph unicode="&#xfb02;" horiz-adv-x="1343" d="M35 895v121q0 20 14 34.5t35 14.5h166v82q0 186 100.5 277.5t302.5 91.5h123q23 0 36 -13.5t13 -36.5v-120q0 -20 -14 -35t-35 -15h-112q-80 0 -113 -38.5t-33 -120.5v-72h420v401q0 20 14.5 35t34.5 15h170q23 0 36 -13.5t13 -36.5v-1417q0 -20 -13 -34.5t-36 -14.5 h-170q-20 0 -34.5 14.5t-14.5 34.5v797h-420v-797q0 -20 -13 -34.5t-36 -14.5h-170q-20 0 -34.5 14.5t-14.5 34.5v797h-166q-20 0 -34.5 14t-14.5 35z" />
<glyph horiz-adv-x="0" />
<glyph unicode="&#xd;" horiz-adv-x="466" />
<glyph horiz-adv-x="0" />
<glyph horiz-adv-x="0" />
<glyph unicode=" "  horiz-adv-x="466" />
<glyph unicode="&#x09;" horiz-adv-x="466" />
<glyph unicode="&#xa0;" horiz-adv-x="466" />
<glyph unicode="!" horiz-adv-x="550" d="M129 49v195q0 23 14.5 36t34.5 13h193q23 0 37 -14.5t14 -34.5v-195q0 -20 -14.5 -34.5t-36.5 -14.5h-193q-20 0 -34.5 14.5t-14.5 34.5zM141 449v935q0 23 14.5 36.5t34.5 13.5h170q20 0 35 -14.5t15 -35.5v-935q0 -20 -14.5 -35t-35.5 -15h-170q-20 0 -34.5 14.5 t-14.5 35.5z" />
<glyph unicode="&#x22;" horiz-adv-x="849" d="M98 1399q-2 25 10.5 40t36.5 15h183q23 0 36 -14.5t11 -40.5l-41 -393q-8 -51 -51 -52h-93q-43 1 -51 52zM475 1399q-2 25 10.5 40t34.5 15h185q23 0 35 -14.5t10 -40.5l-41 -393q-4 -51 -50 -52h-92q-43 1 -51 52z" />
<glyph unicode="#" horiz-adv-x="1415" d="M96 391v119q0 20 13.5 33.5t33.5 13.5h205l45 307h-196q-20 0 -33.5 13.5t-13.5 33.5v119q0 20 13 33.5t34 13.5h229l33 221q4 18 16 30.5t31 12.5h121q18 0 30.5 -12t12.5 -31l-33 -221h254l33 221q4 18 16 30.5t31 12.5h121q18 0 30.5 -12t12.5 -31l-33 -221h170 q20 0 33.5 -13t13.5 -34v-119q0 -20 -13.5 -33.5t-33.5 -13.5h-201l-47 -307h195q20 0 33.5 -13.5t13.5 -33.5v-119q0 -20 -13.5 -33.5t-33.5 -13.5h-226l-32 -221q-4 -18 -16.5 -30.5t-33.5 -12.5h-120q-18 0 -32 12t-11 31l34 221h-254l-32 -221q-4 -18 -16.5 -30.5 t-33.5 -12.5h-120q-19 0 -32 12t-11 31l34 221h-174q-20 0 -33.5 13.5t-13.5 33.5zM559 557h254l45 307h-252z" />
<glyph unicode="$" horiz-adv-x="1318" d="M74 377q0 16 13 29.5t32 13.5h184q25 0 38 -9.5t26 -29.5q23 -70 95.5 -117t199.5 -47q141 0 213.5 48t72.5 132q0 55 -37 92t-111.5 65t-219.5 67q-242 57 -354.5 151t-112.5 270q0 160 115.5 270.5t316.5 135.5v141q0 23 14 36t35 13h127q23 0 36 -13t13 -36v-145 q133 -18 228.5 -78.5t145.5 -140.5t54 -156q0 -18 -12 -30.5t-31 -12.5h-194q-43 0 -60 37q-12 66 -80.5 110t-171.5 44q-113 0 -177 -43.5t-64 -124.5q0 -55 31.5 -92t102 -66t201.5 -62q182 -41 290 -92t159 -129t51 -198q0 -178 -128 -289t-345 -133v-144 q0 -23 -13.5 -36t-35.5 -13h-127q-21 0 -35 13.5t-14 35.5v144q-147 14 -253 71.5t-160 140.5t-58 177z" />
<glyph unicode="%" horiz-adv-x="1607" d="M86 1071q0 61 2 98q8 127 86 201t219 74t220 -74t87 -201q4 -74 5 -98q0 -23 -5 -92q-8 -123 -89 -194.5t-218 -71.5q-135 0 -216 71.5t-89 194.5q-2 35 -2 92zM182 41q0 12 8 22l1010 1332q16 20 30.5 29.5t41.5 9.5h108q20 0 31.5 -11.5t11.5 -29.5q0 -12 -8 -23 l-1009 -1331q-16 -20 -31 -29.5t-39 -9.5h-109q-20 0 -32.5 11.5t-12.5 29.5zM272 1075q0 -51 2 -86q4 -51 32 -87t87 -36q60 0 87.5 35t33.5 88q4 70 4 86q0 23 -4 84q-4 53 -32.5 89t-88.5 36q-57 0 -85.5 -36t-33.5 -89q-2 -31 -2 -84zM905 354q0 59 2 97q8 127 86 200.5 t219 73.5q143 0 221 -73.5t87 -200.5q4 -74 4 -97t-4 -92q-8 -125 -89 -199.5t-219 -74.5q-135 0 -216 74.5t-89 199.5q-2 35 -2 92zM1092 358q0 -53 2 -88q4 -51 31.5 -87t86.5 -36q62 0 89.5 36t31.5 87q4 70 4 88q0 20 -4 82q-4 53 -32.5 89t-88.5 36q-57 0 -85.5 -35.5 t-32.5 -89.5q-2 -31 -2 -82z" />
<glyph unicode="&#x26;" horiz-adv-x="1472" d="M102 391q0 127 74 220.5t209 170.5q-86 92 -124 167t-38 155q0 94 49.5 174t143.5 128t223 48q123 0 214 -46t140 -126t49 -174q0 -121 -75.5 -207t-221.5 -168l293 -289q72 125 107 271q2 16 13 25.5t30 9.5h151q18 0 30.5 -12.5t12.5 -28.5q-2 -80 -57 -200t-131 -220 l219 -221q14 -14 14 -31q0 -16 -10 -26.5t-28 -10.5h-201q-33 0 -53 20l-113 109q-168 -150 -420 -149q-149 0 -262 51t-175.5 144t-62.5 216zM362 401q0 -94 71 -150t169 -56q156 0 260 104l-325 319q-174 -94 -175 -217zM475 1102q0 -47 26.5 -94t98.5 -119 q100 53 151.5 100t51.5 113t-47 107.5t-117 41.5q-68 0 -116 -41t-48 -108z" />
<glyph unicode="'" horiz-adv-x="473" d="M98 1399q-2 25 10.5 40t36.5 15h183q23 0 36 -14.5t11 -40.5l-41 -393q-8 -51 -51 -52h-93q-43 1 -51 52z" />
<glyph unicode="(" horiz-adv-x="741" d="M100 633q0 502 133.5 729t411.5 227q20 0 34.5 -14t14.5 -35v-125q0 -20 -14 -34.5t-33 -14.5q-113 -4 -176 -82t-91 -235.5t-28 -415.5t28 -417t91.5 -236.5t175.5 -81.5q18 0 32.5 -14.5t14.5 -35.5v-124q0 -20 -14 -35t-35 -15q-278 0 -411.5 228.5t-133.5 730.5z" />
<glyph unicode=")" horiz-adv-x="741" d="M49 -152q0 20 14.5 35t30.5 15q113 4 177.5 81.5t92 236.5t27.5 417t-27.5 415.5t-92 235.5t-177.5 82q-16 0 -30.5 14.5t-14.5 34.5v125q0 20 14.5 34.5t34.5 14.5q276 0 409.5 -228t133.5 -728q0 -502 -133 -730.5t-410 -228.5q-20 0 -34.5 14.5t-14.5 35.5v124z" />
<glyph unicode="*" horiz-adv-x="911" d="M98 1182l47 143q4 16 21.5 24.5t34.5 4.5q6 0 16 -8l160 -95l-39 183l-2 16q0 16 13 30.5t32 14.5h149q18 0 31.5 -14.5t13.5 -30.5l-2 -16l-41 -183l162 95l17 8q4 2 10 2q16 0 29.5 -8.5t15.5 -22.5l49 -143l2 -13q0 -14 -9 -27.5t-24 -17.5l-14 -4l-188 -18l141 -121 q12 -12 12 -14q8 -12 8 -25q0 -25 -18 -37l-121 -90q-12 -6 -26 -6q-27 0 -37 16q-2 2 -4 5.5t-7 9.5l-73 174l-76 -174q-4 -6 -6 -9.5t-4 -5.5q-10 -16 -37 -16q-14 0 -27 6l-119 90q-18 12 -18 37q0 12 8 25l10 14l142 123l-187 16l-16 4q-16 4 -24.5 21.5t-4.5 36.5z" />
<glyph unicode="+" horiz-adv-x="1257" d="M78 565v111q0 20 14 34.5t35 14.5h391v387q0 23 14.5 36t34.5 13h123q23 0 36 -13t13 -36v-387h391q20 0 35 -14.5t15 -34.5v-111q0 -20 -13.5 -34.5t-36.5 -14.5h-391v-399q0 -20 -13 -34.5t-36 -14.5h-123q-20 0 -34.5 14t-14.5 35v399h-391q-20 0 -34.5 14.5 t-14.5 34.5z" />
<glyph unicode="," horiz-adv-x="542" d="M86 -111l53 351q12 66 68 65h190q14 0 25.5 -11t11.5 -26q0 -10 -6 -28l-133 -340q-20 -53 -68 -54h-106q-17 0 -27 12.5t-8 30.5z" />
<glyph unicode="-" horiz-adv-x="983" d="M127 545v139q0 20 14.5 34.5t34.5 14.5h631q23 0 36 -13t13 -36v-139q0 -20 -14.5 -34.5t-34.5 -14.5h-631q-20 0 -34.5 14t-14.5 35z" />
<glyph unicode="." horiz-adv-x="550" d="M123 49v207q0 20 14.5 34.5t34.5 14.5h207q20 0 34.5 -14.5t14.5 -34.5v-207q0 -20 -13.5 -34.5t-35.5 -14.5h-207q-20 0 -34.5 14.5t-14.5 34.5z" />
<glyph unicode="/" horiz-adv-x="1042" d="M51 -129q0 12 4 23l697 1673q8 16 24.5 29.5t40.5 13.5h133q18 0 30.5 -12.5t12.5 -30.5q0 -12 -4 -23l-700 -1673q-6 -16 -21.5 -29.5t-42.5 -13.5h-133q-16 0 -28.5 12.5t-12.5 30.5z" />
<glyph unicode="0" horiz-adv-x="1349" d="M117 717q0 135 2 192q10 242 147 393.5t408 151.5q270 0 407.5 -151.5t147.5 -393.5q4 -115 4 -192q0 -78 -4 -189q-12 -246 -146.5 -397t-408.5 -151q-275 0 -409 151.5t-146 396.5q-2 55 -2 189zM414 721q0 -123 2 -182q4 -154 67.5 -237t190.5 -83t190.5 83t67.5 237 q2 59 2 182t-2 178q-4 150 -67.5 234t-190.5 86q-127 -2 -190.5 -86t-67.5 -234q-2 -55 -2 -178z" />
<glyph unicode="1" horiz-adv-x="950" d="M41 1022q0 25 22 41l459 356q23 14 51 15h185q20 0 34.5 -14.5t14.5 -35.5v-1335q0 -20 -14.5 -34.5t-34.5 -14.5h-191q-20 0 -34.5 14.5t-14.5 34.5v1057l-309 -238q-12 -10 -31 -10q-25 0 -39 21l-88 114q-10 14 -10 29z" />
<glyph unicode="2" horiz-adv-x="1269" d="M92 49v107q0 57 51 96l320 317q145 115 224 187.5t118 134t39 121.5q0 96 -51.5 151.5t-155.5 55.5q-102 0 -160.5 -60.5t-73.5 -157.5q-6 -25 -23.5 -36t-37.5 -11h-184q-18 0 -30.5 12.5t-12.5 30.5q4 121 66.5 226.5t179 170t274.5 64.5q164 0 278.5 -56t172 -154.5 t57.5 -223.5q0 -137 -77 -248.5t-239 -238.5l-284 -289h579q23 0 37.5 -14.5t14.5 -36.5v-148q0 -23 -14.5 -36t-37.5 -13h-981q-20 0 -34.5 14.5t-14.5 34.5z" />
<glyph unicode="3" horiz-adv-x="1292" d="M76 360q0 18 12 30.5t31 12.5h188q45 0 62 -41q45 -145 270 -145q125 0 195.5 57.5t70.5 163.5t-64.5 154.5t-189.5 48.5h-211q-20 0 -34.5 14.5t-14.5 34.5v88q0 39 27 62l364 356h-583q-23 0 -37.5 14.5t-14.5 34.5v137q0 23 14.5 37.5t37.5 14.5h880q23 0 37 -14.5 t14 -37.5v-125q0 -35 -26 -57l-352 -362l24 -2q197 -16 312.5 -119t115.5 -293q0 -135 -72.5 -235.5t-200.5 -154.5t-292 -54q-182 0 -308 57t-188.5 144t-66.5 179z" />
<glyph unicode="4" horiz-adv-x="1337" d="M61 360v142q0 33 23 61l604 836q10 16 30.5 25.5t45.5 9.5h225q23 0 36 -13.5t13 -36.5v-829h185q23 0 36 -13.5t13 -35.5v-146q0 -20 -13.5 -34.5t-35.5 -14.5h-185v-262q0 -20 -13 -34.5t-36 -14.5h-180q-21 0 -35 14.5t-14 34.5v262h-649q-20 0 -35 14.5t-15 34.5z M350 547h416v588z" />
<glyph unicode="5" horiz-adv-x="1271" d="M80 389v4q0 16 13 27.5t30 11.5h194q47 0 60 -41q29 -90 95.5 -133t156.5 -43q115 0 189.5 69.5t74.5 192.5q0 111 -75 179.5t-189 68.5q-61 0 -100.5 -16.5t-75.5 -44.5q-4 -2 -18.5 -12.5t-26 -14.5t-23.5 -4h-192q-18 0 -32 13t-14 32l70 698q2 27 19.5 42.5 t42.5 15.5h770q23 0 36 -13.5t13 -36.5v-139q0 -20 -13.5 -34.5t-35.5 -14.5h-592l-33 -332q47 31 108.5 50.5t159.5 19.5q133 0 247 -56.5t182.5 -162t68.5 -244.5q0 -150 -69.5 -261.5t-196.5 -172t-295 -60.5q-170 0 -294 57.5t-187.5 152t-67.5 202.5z" />
<glyph unicode="6" horiz-adv-x="1286" d="M82 483q0 180 160 398l372 512q16 20 30.5 30.5t41.5 10.5h195q18 0 29.5 -13.5t11.5 -31.5q0 -14 -9 -27l-286 -395q33 8 86 8q137 -2 252.5 -66.5t184.5 -175t69 -246.5q0 -139 -69 -254.5t-197 -184t-298 -68.5q-172 0 -302 65.5t-200.5 180t-70.5 257.5zM379 483 q0 -125 79 -195.5t193 -70.5q115 0 195 70.5t80 195.5q0 123 -79 194t-196 71q-115 0 -193.5 -71t-78.5 -194z" />
<glyph unicode="7" horiz-adv-x="1116" d="M59 1237v145q0 23 13.5 37.5t36.5 14.5h901q23 0 37 -14.5t14 -37.5v-129q0 -43 -21 -88l-487 -1116q-12 -23 -26.5 -36t-39.5 -13h-190q-18 0 -30.5 13.5t-12.5 31.5q0 6 4 18l492 1125h-641q-20 0 -35 14.5t-15 34.5z" />
<glyph unicode="8" horiz-adv-x="1345" d="M102 422q0 115 56.5 204t152.5 136q-76 47 -116.5 121.5t-40.5 171.5q0 180 136 289.5t382 109.5t381 -108.5t135 -288.5q0 -96 -40 -171t-116 -124q98 -47 154.5 -136t56.5 -206q0 -129 -67.5 -228.5t-196.5 -155.5t-307 -56t-306 56t-196 156.5t-68 229.5zM391 420 q0 -102 80 -163.5t201 -61.5t201.5 61t80.5 164q0 102 -80.5 163.5t-201.5 61.5t-201 -60.5t-80 -164.5zM426 1044q0 -88 69.5 -140t176.5 -52q106 2 177 54t71 138q0 88 -70 141.5t-178 53.5q-106 0 -176 -53t-70 -142z" />
<glyph unicode="9" horiz-adv-x="1265" d="M68 956q0 129 63.5 243t188 184.5t301.5 70.5q178 0 305 -66.5t191.5 -178t64.5 -244.5q0 -84 -27 -158t-60.5 -128t-95.5 -140l-358 -498q-16 -20 -30.5 -30.5t-39.5 -10.5h-196q-19 0 -31 13.5t-12 31.5q0 12 10 27l301 413q-35 -8 -86 -8q-135 4 -246.5 68.5t-177 172 t-65.5 238.5zM360 956q0 -117 75 -187.5t188 -70.5q112 0 188 71t76 187q0 119 -76 190t-188 71q-111 0 -187 -71t-76 -190z" />
<glyph unicode=":" horiz-adv-x="563" d="M129 49v197q0 23 14.5 37t34.5 14h205q23 0 37 -14.5t14 -36.5v-197q0 -20 -14 -34.5t-37 -14.5h-205q-20 0 -34.5 14.5t-14.5 34.5zM129 766v197q0 23 14.5 37t34.5 14h205q23 0 37 -14.5t14 -36.5v-197q0 -20 -14 -34.5t-37 -14.5h-205q-20 0 -34.5 14t-14.5 35z" />
<glyph unicode=";" horiz-adv-x="587" d="M104 -111l56 351q4 29 20.5 47t44.5 18h191q14 0 25.5 -11t11.5 -26q0 -10 -7 -28l-131 -340q-12 -25 -26.5 -39.5t-42.5 -14.5h-107q-16 0 -26.5 12.5t-8.5 30.5zM156 766v197q0 23 14 37t35 14h205q23 0 37 -14.5t14 -36.5v-197q0 -20 -14.5 -34.5t-36.5 -14.5h-205 q-21 0 -35 14t-14 35z" />
<glyph unicode="&#x3c;" horiz-adv-x="1034" d="M68 694v49q0 29 13 49.5t46 43.5l694 473q23 18 41 18t29.5 -11t11.5 -32v-158q0 -27 -12 -42t-39 -33l-496 -332l496 -332q27 -18 39 -33.5t12 -40.5v-159q0 -18 -12 -29.5t-29 -11.5q-21 0 -41 16l-694 475q-31 20 -45 41t-14 49z" />
<glyph unicode="=" horiz-adv-x="1163" d="M135 301v115q0 23 14.5 36t34.5 13h795q20 0 34.5 -14.5t14.5 -34.5v-115q0 -20 -14.5 -34.5t-34.5 -14.5h-795q-20 0 -34.5 14.5t-14.5 34.5zM135 813v115q0 23 14.5 36t34.5 13h795q20 0 34.5 -14.5t14.5 -34.5v-115q0 -20 -14.5 -34.5t-34.5 -14.5h-795 q-20 0 -34.5 14.5t-14.5 34.5z" />
<glyph unicode="&#x3e;" horiz-adv-x="1032" d="M131 154v159q0 25 12.5 40.5t38.5 33.5l496 332l-496 332q-27 18 -39 33.5t-12 41.5v158q0 20 12.5 31.5t28.5 11.5q18 0 41 -18l694 -473q33 -23 46.5 -43.5t13.5 -49.5v-49q0 -29 -14.5 -49t-45.5 -41l-694 -475q-20 -16 -41 -16q-16 0 -28.5 11t-12.5 30z" />
<glyph unicode="?" horiz-adv-x="1159" d="M61 1024q4 113 69 211t185.5 158.5t284.5 60.5q170 0 279.5 -54t160 -138t50.5 -175q0 -102 -46.5 -177.5t-136.5 -174.5q-66 -70 -101.5 -120t-47.5 -107q-8 -51 -10 -70q-10 -27 -22.5 -39t-35.5 -12h-203q-18 0 -30.5 12.5t-12.5 28.5q0 43 2 66q10 96 61.5 169.5 t141.5 163.5q70 70 103.5 115t38.5 94q8 84 -54.5 133.5t-150.5 49.5q-199 0 -240 -199q-14 -47 -59 -47h-178q-20 0 -34 14t-14 37zM432 49v182q0 20 14.5 35t34.5 15h203q20 0 35.5 -14.5t15.5 -35.5v-182q0 -20 -14 -34.5t-37 -14.5h-203q-20 0 -34.5 14.5t-14.5 34.5z " />
<glyph unicode="@" horiz-adv-x="1718" d="M106 559q0 102 5 172q20 186 108 330.5t247 228.5t378 84q727 0 764 -643q4 -82 4 -133q0 -76 -4 -129q-8 -147 -90 -227t-205 -80q-90 0 -150.5 34.5t-89.5 75.5q-33 -55 -91 -93t-171 -38q-154 0 -243 110.5t-89 307.5t88 308.5t240 111.5q74 0 123 -25.5t84 -70.5v30 q0 23 14 36.5t35 13.5h82q23 0 36 -13.5t13 -36.5v-426q0 -76 31.5 -114.5t87.5 -38.5q63 0 90 47t27 106q4 61 4 129q0 31 -4 105q-16 246 -150.5 362.5t-435.5 116.5q-250 0 -388.5 -126t-162.5 -353q-6 -51 -6 -162q0 -109 6 -168q23 -229 165 -351t402 -122 q127 0 209 17.5t124 41t93 60.5q18 14 28.5 21.5t28.5 7.5h115q20 0 34.5 -14.5t14.5 -35.5q0 -10 -12 -30q-217 -242 -635 -242q-344 0 -531.5 169t-217.5 468q-4 78 -5 178zM659 559q0 -113 44.5 -179.5t132.5 -66.5q94 0 136 61.5t42 184.5t-42 185.5t-136 62.5 q-176 0 -177 -248z" />
<glyph unicode="A" horiz-adv-x="1421" d="M29 43l4 18l491 1321q20 51 74 52h225q53 0 74 -52l492 -1321l4 -18q0 -18 -13.5 -30.5t-29.5 -12.5h-183q-43 0 -59 39l-94 248h-606l-95 -248q-16 -39 -59 -39h-182q-19 0 -31 12.5t-12 30.5zM479 524h463l-231 631z" />
<glyph unicode="B" horiz-adv-x="1406" d="M160 49v1333q0 23 13 37.5t36 14.5h594q240 0 358.5 -105.5t118.5 -288.5q0 -106 -52 -181t-122 -107q86 -39 145.5 -127t59.5 -201q0 -190 -129 -307t-361 -117h-612q-21 0 -35 14.5t-14 34.5zM449 219h337q106 0 166 58.5t60 148.5t-60.5 148.5t-165.5 58.5h-337v-414z M449 846h317q104 0 160.5 51t56.5 137t-55.5 133t-161.5 47h-317v-368z" />
<glyph unicode="C" horiz-adv-x="1402" d="M109 715q0 127 2 184q10 262 165.5 408.5t436.5 146.5q182 0 317 -62.5t210 -171t79 -243.5v-4q0 -16 -13.5 -27.5t-29.5 -11.5h-199q-25 0 -37 11t-20 40q-31 127 -106.5 179.5t-200.5 52.5q-293 0 -305 -328q-2 -55 -2 -170t2 -174q12 -328 305 -328q123 0 199.5 52.5 t107.5 179.5q8 29 20.5 40t36.5 11h199q18 0 31.5 -12.5t11.5 -30.5q-4 -135 -79 -244t-210 -171t-317 -62q-283 0 -437.5 144t-164.5 411q-2 55 -2 180z" />
<glyph unicode="D" horiz-adv-x="1439" d="M160 49v1333q0 23 13 37.5t36 14.5h500q604 0 616 -557q4 -119 4 -160q0 -39 -4 -158q-8 -287 -154.5 -423t-451.5 -136h-510q-21 0 -35 14.5t-14 34.5zM449 238h260q170 0 245.5 75.5t79.5 251.5q4 123 4 154q0 33 -4 151q-4 168 -84 247t-252 79h-249v-958z" />
<glyph unicode="E" horiz-adv-x="1275" d="M160 49v1333q0 23 13 37.5t36 14.5h903q23 0 37 -14.5t14 -37.5v-137q0 -23 -14 -36t-37 -13h-672v-358h627q23 0 37 -14.5t14 -37.5v-129q0 -23 -14 -36t-37 -13h-627v-370h688q23 0 37.5 -13.5t14.5 -36.5v-139q0 -23 -14.5 -36t-37.5 -13h-919q-21 0 -35 14.5 t-14 34.5z" />
<glyph unicode="F" horiz-adv-x="1232" d="M160 49v1333q0 23 13 37.5t36 14.5h891q23 0 37 -14.5t14 -37.5v-147q0 -20 -14.5 -34.5t-36.5 -14.5h-656v-385h615q23 0 37 -14.5t14 -34.5v-148q0 -20 -14.5 -34.5t-36.5 -14.5h-615v-506q0 -20 -14 -34.5t-37 -14.5h-184q-21 0 -35 14.5t-14 34.5z" />
<glyph unicode="G" horiz-adv-x="1435" d="M111 721q0 131 2 190q8 254 167.5 398.5t438.5 144.5q188 0 324.5 -64.5t206 -159.5t73.5 -188q0 -18 -12.5 -30.5t-32.5 -12.5h-215q-20 0 -30.5 8.5t-18.5 26.5q-29 76 -100.5 129.5t-194.5 53.5q-143 0 -224 -77t-85 -239q-2 -59 -2 -180q0 -119 2 -180 q4 -166 86 -245t225 -79q145 0 233 78t88 233v64h-249q-20 0 -35 14.5t-15 34.5v113q0 20 14.5 34.5t35.5 14.5h491q23 0 37 -14.5t14 -34.5v-217q0 -170 -75.5 -296t-215 -193.5t-325.5 -67.5q-283 0 -439.5 145t-166.5 405q-2 59 -2 191z" />
<glyph unicode="H" horiz-adv-x="1495" d="M160 49v1333q0 23 13 37.5t36 14.5h188q23 0 37.5 -14.5t14.5 -37.5v-526h598v526q0 23 14 37.5t35 14.5h190q23 0 36 -14.5t13 -37.5v-1333q0 -20 -13 -34.5t-36 -14.5h-190q-20 0 -34.5 14.5t-14.5 34.5v547h-598v-547q0 -20 -14.5 -34.5t-37.5 -14.5h-188 q-21 0 -35 14.5t-14 34.5z" />
<glyph unicode="I" horiz-adv-x="614" d="M160 49v1335q0 23 14 36.5t35 13.5h197q23 0 36 -13.5t13 -36.5v-1335q0 -20 -13.5 -34.5t-35.5 -14.5h-197q-21 0 -35 14.5t-14 34.5z" />
<glyph unicode="J" horiz-adv-x="1337" d="M61 432q0 18 12.5 31.5t32.5 13.5h199q47 0 60 -51q16 -106 86.5 -157.5t179.5 -51.5q127 0 195.5 83t68.5 232v656h-694q-20 0 -34.5 14.5t-14.5 36.5v145q0 23 14 36.5t35 13.5h940q23 0 36 -14.5t13 -37.5v-858q0 -170 -69.5 -292.5t-197.5 -187t-300 -64.5 q-152 0 -278 51t-202.5 153.5t-81.5 247.5z" />
<glyph unicode="K" horiz-adv-x="1296" d="M160 49v1333q0 23 13 37.5t36 14.5h184q23 0 37 -14.5t14 -37.5v-479l457 494q31 37 80 37h209q16 0 29.5 -12.5t13.5 -30.5q0 -14 -10 -25l-557 -618l598 -678q8 -14 8 -27q0 -18 -12.5 -30.5t-28.5 -12.5h-215q-43 0 -61.5 17.5t-20.5 19.5l-490 541v-529 q0 -20 -14 -34.5t-37 -14.5h-184q-21 0 -35 14.5t-14 34.5z" />
<glyph unicode="L" horiz-adv-x="1189" d="M160 49v1335q0 23 14 36.5t35 13.5h192q23 0 36.5 -13.5t13.5 -36.5v-1138h649q23 0 37 -14.5t14 -34.5v-148q0 -20 -14.5 -34.5t-36.5 -14.5h-891q-21 0 -35 14.5t-14 34.5z" />
<glyph unicode="M" horiz-adv-x="1662" d="M160 49v1333q0 23 13 37.5t36 14.5h166q39 0 61 -39l395 -733l396 733q23 39 61 39h164q23 0 37 -14.5t14 -37.5v-1333q0 -23 -14 -36t-37 -13h-176q-20 0 -34.5 14.5t-14.5 34.5v881l-285 -541q-23 -45 -68 -45h-86q-43 0 -69 45l-285 541v-881q0 -20 -13 -34.5 t-36 -14.5h-176q-21 0 -35 14.5t-14 34.5z" />
<glyph unicode="N" horiz-adv-x="1447" d="M160 49v1333q0 23 13 37.5t36 14.5h160q39 0 59 -35l586 -910v893q0 23 13 37.5t36 14.5h176q23 0 37 -14.5t14 -37.5v-1331q0 -23 -14 -37t-35 -14h-162q-41 0 -61 35l-584 889v-875q0 -20 -13 -34.5t-36 -14.5h-176q-21 0 -35 14.5t-14 34.5z" />
<glyph unicode="O" horiz-adv-x="1423" d="M111 715q0 117 2 176q8 272 167.5 417.5t432.5 145.5q270 0 431 -145.5t169 -417.5q4 -119 4 -176q0 -55 -4 -174q-8 -279 -165 -420t-435 -141q-281 0 -436.5 141t-163.5 420q-2 59 -2 174zM408 717q0 -104 2 -166q4 -168 84.5 -251t218.5 -83q137 0 217 82t86 252 q4 123 4 166q0 47 -4 166q-6 168 -88 251t-215 83q-135 0 -217 -83t-86 -251q-2 -59 -2 -166z" />
<glyph unicode="P" horiz-adv-x="1351" d="M160 49v1333q0 23 13 37.5t36 14.5h549q248 0 389 -117t141 -340q0 -221 -141 -335t-389 -114h-301v-479q0 -23 -14.5 -36t-36.5 -13h-197q-21 0 -35 14.5t-14 34.5zM453 758h295q119 0 181 56t62 165q0 106 -60.5 165.5t-182.5 59.5h-295v-446z" />
<glyph unicode="Q" horiz-adv-x="1423" d="M109 715q0 117 2 176q8 272 168.5 417.5t431.5 145.5q272 0 432 -145.5t168 -417.5q4 -119 4 -176q0 -55 -4 -174q-8 -270 -148 -406l144 -205q6 -12 6 -20v-4q0 -16 -12.5 -27.5t-28.5 -11.5h-193q-26 0 -43.5 13.5t-31.5 33.5l-76 102q-90 -36 -210 -36h-7 q-279 0 -435.5 141t-164.5 420q-2 59 -2 174zM406 717q0 -104 2 -166q6 -170 85.5 -252t217.5 -82q137 0 218 83t85 251q4 123 4 166q0 47 -4 166q-4 168 -86 251t-217 83t-216 -83t-87 -251q-2 -59 -2 -166z" />
<glyph unicode="R" horiz-adv-x="1380" d="M160 49v1333q0 23 13 37.5t36 14.5h530q252 0 394.5 -117t142.5 -332q0 -150 -71.5 -251t-200.5 -146l296 -522q6 -12 7 -23q0 -18 -13.5 -30.5t-29.5 -12.5h-189q-33 0 -51 15.5t-33 39.5l-262 486h-280v-492q0 -20 -14.5 -34.5t-37.5 -14.5h-188q-21 0 -35 14.5 t-14 34.5zM449 774h284q123 0 184.5 54.5t61.5 158.5t-61.5 160.5t-184.5 56.5h-284v-430z" />
<glyph unicode="S" horiz-adv-x="1316" d="M74 377q0 16 12 29.5t31 13.5h186q23 0 37 -10.5t27 -28.5q20 -70 92.5 -117t199.5 -47q143 0 216 48t73 132q0 55 -37 92t-111.5 65t-221.5 67q-242 57 -354.5 151t-112.5 270q0 119 65.5 212.5t187 146.5t283.5 53q170 0 294 -59.5t188.5 -148.5t68.5 -177 q0 -16 -12 -29.5t-31 -13.5h-194q-45 0 -62 37q-10 66 -79.5 110t-172.5 44q-113 0 -177 -43.5t-64 -124.5q0 -55 32.5 -92t102 -65t202.5 -63q182 -41 290 -92t159 -129t51 -198q0 -133 -72.5 -230.5t-204.5 -148.5t-307 -51q-184 0 -315 55t-198.5 145t-71.5 197z" />
<glyph unicode="T" horiz-adv-x="1241" d="M47 1229v153q0 23 13.5 37.5t35.5 14.5h1047q23 0 37 -14.5t14 -37.5v-153q0 -23 -14.5 -37t-36.5 -14h-377v-1129q0 -20 -13.5 -34.5t-35.5 -14.5h-193q-20 0 -34.5 14.5t-14.5 34.5v1129h-379q-20 0 -34.5 14t-14.5 37z" />
<glyph unicode="U" horiz-adv-x="1462" d="M147 549v833q0 23 13.5 37.5t36.5 14.5h188q23 0 37 -14.5t14 -37.5v-833q0 -162 77 -244t218 -82t218 82t77 244v833q0 23 14.5 37.5t36.5 14.5h189q23 0 36 -14.5t13 -37.5v-833q0 -287 -152.5 -428t-429.5 -141q-278 0 -432 141t-154 428z" />
<glyph unicode="V" horiz-adv-x="1382" d="M57 1391q0 18 12.5 30.5t30.5 12.5h183q27 0 43 -14.5t22 -30.5l342 -1049l344 1049q4 16 20.5 30.5t43.5 14.5h184q16 0 29.5 -12.5t13.5 -30.5l-4 -19l-436 -1315q-20 -57 -80 -57h-227q-62 0 -80 57l-439 1315q-2 6 -2 19z" />
<glyph unicode="W" horiz-adv-x="1671" d="M78 1391q0 18 12 30.5t31 12.5h184q27 0 39 -9.5t16 -31.5l170 -922l183 594q20 51 67 51h113q27 0 43 -15.5t22 -35.5l185 -594l168 922q6 41 57 41h184q16 0 28.5 -12.5t12.5 -30.5q0 -10 -2 -17l-241 -1313q-4 -29 -23.5 -45t-50.5 -16h-139q-29 0 -47.5 15.5 t-24.5 35.5l-229 680l-230 -680q-16 -51 -71 -51h-140q-59 0 -73 61l-242 1313z" />
<glyph unicode="X" horiz-adv-x="1357" d="M35 43q0 8 8 25l457 663l-428 635q-8 12 -9 25q0 18 13.5 30.5t29.5 12.5h216q37 0 63 -39l299 -439l301 439q23 39 64 39h202q16 0 29.5 -12.5t13.5 -30.5q0 -8 -8 -25l-428 -635l459 -663q6 -12 6 -25q0 -18 -12.5 -30.5t-30.5 -12.5h-219q-37 0 -64 37l-323 461 l-320 -461q-27 -37 -63 -37h-213q-17 0 -30 12.5t-13 30.5z" />
<glyph unicode="Y" horiz-adv-x="1361" d="M45 1391q0 18 13.5 30.5t29.5 12.5h184q39 0 64 -39l344 -594l346 594q8 14 23.5 26.5t37.5 12.5h185q18 0 30.5 -12.5t12.5 -30.5q0 -12 -6 -23l-484 -858v-461q0 -23 -14 -36t-37 -13h-188q-21 0 -35 14.5t-14 34.5v461l-486 858q-6 18 -6 23z" />
<glyph unicode="Z" horiz-adv-x="1284" d="M80 51v146q0 27 9 43t22 32l710 916h-671q-20 0 -35 14.5t-15 36.5v143q0 23 13.5 37.5t36.5 14.5h980q23 0 37.5 -14.5t14.5 -37.5v-143q0 -41 -27 -72l-694 -921h694q23 0 36 -13.5t13 -35.5v-148q0 -20 -13 -34.5t-36 -14.5h-1026q-23 0 -36 14.5t-13 36.5z" />
<glyph unicode="[" horiz-adv-x="729" d="M137 -276v1816q0 23 14.5 36t34.5 13h439q23 0 36 -13t13 -36v-127q0 -20 -13.5 -34.5t-35.5 -14.5h-236v-1448h236q20 0 34.5 -14.5t14.5 -34.5v-143q0 -23 -13.5 -36.5t-35.5 -13.5h-439q-20 0 -34.5 13.5t-14.5 36.5z" />
<glyph unicode="\" horiz-adv-x="1042" d="M49 1567q0 18 12.5 30.5t28.5 12.5h135q25 0 41.5 -13.5t22.5 -29.5l698 -1673q4 -10 4 -23q0 -18 -12 -30.5t-31 -12.5h-131q-26 0 -41.5 13.5t-21.5 29.5l-701 1673q-4 10 -4 23z" />
<glyph unicode="]" horiz-adv-x="729" d="M53 -133q0 20 14.5 34.5t34.5 14.5h236v1448h-236q-20 0 -34.5 14.5t-14.5 34.5v127q0 20 14.5 34.5t34.5 14.5h441q23 0 36 -13t13 -36v-1816q0 -23 -13.5 -36.5t-35.5 -13.5h-441q-20 0 -34.5 14.5t-14.5 35.5v143z" />
<glyph unicode="^" horiz-adv-x="919" d="M115 1221q0 18 18 36l199 205q20 20 34.5 26.5t36.5 6.5h113q20 0 35.5 -6t34.5 -27l200 -205q18 -18 19 -36q0 -27 -31 -27h-76q-39 0 -65 14l-174 109l-174 -109q-23 -14 -64 -14h-76q-30 0 -30 27z" />
<glyph unicode="_" horiz-adv-x="1517" d="M109 -68v138q0 23 14 36t35 13h1202q23 0 37 -14.5t14 -34.5v-138q0 -20 -14.5 -34.5t-36.5 -14.5h-1202q-21 0 -35 13.5t-14 35.5z" />
<glyph unicode="`" horiz-adv-x="755" d="M129 1479q0 18 10.5 29.5t28.5 11.5h207q27 0 42 -8.5t34 -30.5l167 -203q10 -10 11 -27q0 -33 -33 -32h-129q-23 0 -38 6t-34 20l-256 209q-10 10 -10 25z" />
<glyph unicode="a" d="M66 293q0 139 112.5 225t308.5 117l281 41v43q0 88 -45 133t-143 45q-68 0 -109 -24.5t-66.5 -50t-33.5 -34.5q-8 -25 -31 -24h-160q-18 0 -31.5 12t-13.5 33q2 51 50 115.5t148.5 112.5t248.5 48q242 0 352 -108.5t110 -284.5v-643q0 -20 -13 -34.5t-36 -14.5h-170 q-20 0 -34.5 14.5t-14.5 34.5v80q-45 -66 -127 -107.5t-205 -41.5q-104 0 -191 41.5t-137 113.5t-50 158zM384 211.5q54 -35.5 130 -35.5q113 0 184.5 74t71.5 213v41l-205 -33q-235 -37 -235 -157q0 -67 54 -102.5z" />
<glyph unicode="b" horiz-adv-x="1257" d="M137 49v1356q0 23 14.5 36t34.5 13h179q23 0 36 -13.5t13 -35.5v-455q115 135 313 135q207 0 318.5 -134t117.5 -351q2 -25 2 -68q0 -41 -2 -67q-8 -221 -118.5 -353t-317.5 -132q-213 0 -326 145v-76q0 -20 -14 -34.5t-37 -14.5h-164q-20 0 -34.5 14.5t-14.5 34.5z M412 539q0 -53 2 -78q4 -109 61 -184.5t174 -75.5q220 0 234 270q2 20 2 61t-2 62q-14 270 -234 270q-113 0 -172 -71.5t-63 -174.5q-2 -25 -2 -79z" />
<glyph unicode="c" d="M92 532l2 82q8 221 142.5 346t359.5 125q162 0 273.5 -57t166 -140t58.5 -159q2 -20 -13.5 -34.5t-36.5 -14.5h-182q-23 0 -33 9t-20 34q-31 78 -81 112.5t-128 34.5q-104 0 -162.5 -65.5t-62.5 -200.5l-2 -76l2 -67q12 -266 225 -266q80 0 129 33.5t80 113.5 q8 23 19.5 33t33.5 10h182q20 0 36 -14.5t14 -34.5q-4 -72 -57.5 -155t-164 -142t-276.5 -59q-225 0 -359.5 124.5t-142.5 346.5z" />
<glyph unicode="d" horiz-adv-x="1257" d="M90 532l2 68q8 217 120 351t318 134q197 0 314 -135v455q0 23 14 36t35 13h178q23 0 36 -13.5t13 -35.5v-1356q0 -20 -13 -34.5t-36 -14.5h-166q-20 0 -34.5 14.5t-14.5 34.5v76q-113 -145 -326 -145q-206 0 -317 132t-121 353zM373 532l2 -61q14 -270 233 -270 q117 0 173.5 74.5t62.5 185.5q2 25 2 78q0 55 -2 79q-4 102 -63.5 174t-172.5 72q-219 0 -233 -270z" />
<glyph unicode="e" horiz-adv-x="1183" d="M88 535q0 256 134 403t372 147q244 0 376 -147t132 -393v-43q0 -20 -14.5 -34.5t-36.5 -14.5h-680v-17q4 -115 62.5 -189.5t160.5 -74.5q117 0 190 94q18 23 28.5 28t35.5 5h180q18 0 31.5 -10t13.5 -29q0 -49 -58.5 -115.5t-167 -115.5t-251.5 -49q-229 0 -363.5 131 t-142.5 372zM371 627h448v4q0 121 -60.5 193.5t-164.5 72.5t-163.5 -72.5t-59.5 -193.5v-4z" />
<glyph unicode="f" horiz-adv-x="849" d="M35 895v121q0 20 14 34.5t35 14.5h166v82q0 186 100.5 277.5t302.5 91.5h142q20 0 34.5 -14.5t14.5 -35.5v-120q0 -20 -14.5 -35t-34.5 -15h-131q-80 0 -113 -38.5t-33 -120.5v-72h256q20 0 34.5 -14.5t14.5 -34.5v-121q0 -20 -14 -34.5t-35 -14.5h-256v-797 q0 -20 -13 -34.5t-36 -14.5h-170q-20 0 -34.5 14.5t-14.5 34.5v797h-166q-20 0 -34.5 14t-14.5 35z" />
<glyph unicode="g" horiz-adv-x="1261" d="M92 545l2 55q8 219 116.5 352t319.5 133q109 0 191 -40.5t135 -110.5v80q0 23 15.5 37t35.5 14h168q20 0 34.5 -14.5t14.5 -36.5l2 -987q0 -227 -127 -352.5t-383 -125.5q-182 0 -294.5 60.5t-159.5 138.5t-47 133q0 20 14 33.5t35 13.5h182q18 0 31.5 -9t21.5 -34 q23 -53 68 -91t139 -38q123 0 180.5 54.5t57.5 189.5v139q-111 -131 -314 -131q-213 0 -320.5 129t-115.5 352zM373 545q0 -319 235 -320q115 0 172.5 74t63.5 180q2 16 2 66q0 49 -2 65q-6 106 -63.5 180t-172.5 74q-221 0 -233 -270z" />
<glyph unicode="h" horiz-adv-x="1290" d="M137 49v1356q0 23 14.5 36t34.5 13h187q23 0 36 -13.5t13 -35.5v-467q123 147 330 147q188 0 300.5 -123.5t112.5 -336.5v-576q0 -20 -13 -34.5t-36 -14.5h-186q-23 0 -37 14.5t-14 34.5v563q0 119 -58.5 185.5t-167.5 66.5q-104 0 -167.5 -67.5t-63.5 -184.5v-563 q0 -20 -13.5 -34.5t-35.5 -14.5h-187q-20 0 -34.5 14.5t-14.5 34.5z" />
<glyph unicode="i" horiz-adv-x="542" d="M127 1288v150q0 23 14.5 37t34.5 14h189q23 0 37 -14.5t14 -36.5v-150q0 -20 -15.5 -34.5t-35.5 -14.5h-189q-20 0 -34.5 14.5t-14.5 34.5zM135 49v967q0 23 14.5 36t34.5 13h174q20 0 35 -14.5t15 -34.5v-967q0 -20 -14.5 -34.5t-35.5 -14.5h-174q-20 0 -34.5 14.5 t-14.5 34.5z" />
<glyph unicode="j" horiz-adv-x="573" d="M-90 -219q0 20 13.5 34.5t35.5 14.5h53q86 0 116 44t30 130v1012q0 23 14 36t35 13h180q23 0 36 -13.5t13 -35.5v-1018q0 -184 -100 -285.5t-297 -101.5h-80q-22 0 -35.5 13.5t-13.5 35.5v121zM147 1288v150q0 20 14.5 35.5t35.5 15.5h198q20 0 34.5 -14.5t14.5 -36.5 v-150q0 -20 -14 -34.5t-35 -14.5h-198q-21 0 -35.5 14.5t-14.5 34.5z" />
<glyph unicode="k" horiz-adv-x="1130" d="M137 49v1356q0 23 14.5 36t34.5 13h170q20 0 35 -14.5t15 -34.5v-700l339 325q6 4 19.5 15.5t26 15.5t30.5 4h195q20 0 32.5 -12.5t12.5 -32.5q0 -18 -21 -37l-417 -395l469 -508q18 -18 18 -35q0 -20 -12.5 -32.5t-30.5 -12.5h-199q-29 0 -42 7t-33 28l-387 411v-397 q0 -20 -14.5 -34.5t-35.5 -14.5h-170q-20 0 -34.5 14.5t-14.5 34.5z" />
<glyph unicode="l" horiz-adv-x="544" d="M137 49v1356q0 23 14.5 36t34.5 13h172q23 0 36.5 -13.5t13.5 -35.5v-1356q0 -20 -13.5 -34.5t-36.5 -14.5h-172q-20 0 -34.5 14.5t-14.5 34.5z" />
<glyph unicode="m" horiz-adv-x="1849" d="M135 49v967q0 23 14.5 36t34.5 13h162q23 0 36 -13.5t13 -35.5v-70q111 139 297 139q227 0 318 -182q49 82 139 132t194 50q168 0 274.5 -114.5t106.5 -333.5v-588q0 -20 -13 -34.5t-36 -14.5h-170q-20 0 -34.5 14.5t-14.5 34.5v572q0 129 -54 186t-142 57 q-80 0 -136.5 -58t-56.5 -185v-572q0 -20 -13.5 -34.5t-35.5 -14.5h-172q-20 0 -34.5 14.5t-14.5 34.5v572q0 127 -55.5 185t-141.5 58q-80 0 -136 -58t-56 -185v-572q0 -20 -13.5 -34.5t-36.5 -14.5h-174q-20 0 -34.5 14.5t-14.5 34.5z" />
<glyph unicode="n" horiz-adv-x="1280" d="M135 49v967q0 23 14.5 36t34.5 13h170q23 0 36 -13.5t13 -35.5v-84q124 153 339 153h3q188 0 299 -122.5t111 -337.5v-576q0 -20 -13.5 -34.5t-35.5 -14.5h-184q-20 0 -35 14.5t-15 34.5v563q0 119 -58 185.5t-167 66.5q-104 0 -167.5 -67.5t-63.5 -184.5v-563 q0 -20 -13.5 -34.5t-35.5 -14.5h-183q-20 0 -34.5 14.5t-14.5 34.5z" />
<glyph unicode="o" horiz-adv-x="1214" d="M92 532l2 91q10 215 143.5 338.5t370.5 123.5q236 0 369 -123.5t143 -338.5q2 -25 2 -91t-2 -90q-10 -217 -141 -339.5t-371 -122.5q-241 0 -372.5 122.5t-141.5 339.5zM375 532l2 -79q4 -131 63.5 -199t167.5 -68q109 0 167.5 68t62.5 199q2 20 2 79t-2 80 q-4 131 -63.5 200t-166.5 69q-109 0 -168 -69t-63 -200z" />
<glyph unicode="p" horiz-adv-x="1257" d="M137 -340v1356q0 23 14.5 36t34.5 13h164q23 0 37 -14.5t14 -34.5v-82q108 151 323 151h3q207 0 317.5 -130t118.5 -349q2 -25 2 -74t-2 -73q-6 -215 -117.5 -347t-318.5 -132q-205 0 -313 145v-465q0 -23 -13.5 -36t-35.5 -13h-179q-20 0 -34.5 13.5t-14.5 35.5z M412 526q0 -53 2 -80q4 -102 63.5 -173.5t171.5 -71.5q220 0 234 270q2 20 2 61t-2 62q-14 270 -234 270q-117 0 -174 -75.5t-61 -184.5q-2 -25 -2 -78z" />
<glyph unicode="q" horiz-adv-x="1257" d="M92 532l2 74q8 219 119 349t317 130q215 0 328 -151v82q0 23 14.5 36t34.5 13h166q23 0 36 -13.5t13 -35.5v-1356q0 -23 -13 -36t-36 -13h-178q-21 0 -35 13.5t-14 35.5v465q-109 -145 -316 -145q-205 0 -316.5 132t-119.5 347zM375 532q0 -41 2 -61q14 -270 231 -270 q113 0 173.5 71.5t64.5 173.5q2 27 2 80t-2 78q-6 111 -63.5 185.5t-174.5 74.5q-217 0 -231 -270q-2 -20 -2 -62z" />
<glyph unicode="r" horiz-adv-x="858" d="M135 49v965q0 23 14.5 37t34.5 14h168q23 0 37 -14.5t14 -36.5v-84q102 135 295 135h86q23 0 36.5 -13.5t13.5 -35.5v-150q0 -20 -13.5 -34.5t-36.5 -14.5h-161q-96 0 -151.5 -55t-55.5 -152v-561q0 -20 -14.5 -34.5t-34.5 -14.5h-183q-20 0 -34.5 14.5t-14.5 34.5z" />
<glyph unicode="s" horiz-adv-x="1091" d="M76 244q0 20 13 32.5t32 12.5h168q16 0 28 -17q10 -8 46 -38.5t82.5 -48t101.5 -17.5q82 0 133 31.5t51 91.5q0 41 -23.5 66.5t-84 47t-181.5 48.5q-174 37 -257 112.5t-83 200.5q0 82 49.5 154.5t146.5 118.5t232 46q139 0 239.5 -44t153 -105.5t52.5 -108.5 q0 -18 -13.5 -31.5t-31.5 -13.5h-154q-23 0 -35 17q-14 10 -45.5 37.5t-70.5 44t-95 16.5q-76 0 -116.5 -33t-40.5 -86q0 -37 19.5 -61.5t78.5 -46t178 -43.5q369 -72 369 -322q0 -145 -126 -235t-351 -90q-156 0 -260.5 47t-154.5 109.5t-50 107.5z" />
<glyph unicode="t" horiz-adv-x="882" d="M33 895v121q0 20 14 34.5t35 14.5h162v340q0 23 14 36t35 13h170q23 0 36 -13.5t13 -35.5v-340h256q20 0 34.5 -14.5t14.5 -34.5v-121q0 -20 -14.5 -34.5t-34.5 -14.5h-256v-440q0 -88 30.5 -133.5t100.5 -45.5h143q23 0 36.5 -13t13.5 -36v-129q0 -20 -13.5 -34.5 t-36.5 -14.5h-168q-186 0 -280 97.5t-94 285.5v463h-162q-20 0 -34.5 14t-14.5 35z" />
<glyph unicode="u" horiz-adv-x="1273" d="M125 440v576q0 23 14.5 36t34.5 13h184q20 0 35 -14.5t15 -34.5v-563q0 -252 219 -252q106 0 168.5 67.5t62.5 184.5v563q0 23 14.5 36t34.5 13h183q23 0 36 -13.5t13 -35.5v-967q0 -20 -13.5 -34.5t-35.5 -14.5h-170q-20 0 -35 14.5t-15 34.5v84q-112 -153 -337 -153h-3 q-188 0 -296.5 122.5t-108.5 337.5z" />
<glyph unicode="v" horiz-adv-x="1177" d="M51 1020q0 18 13.5 31.5t29.5 13.5h170q41 0 55 -39l271 -715l270 715q4 14 17.5 26.5t35.5 12.5h170q18 0 30.5 -13.5t12.5 -31.5q0 -12 -2 -19l-383 -950q-23 -51 -73 -51h-156q-31 0 -47 13.5t-27 37.5l-385 950q-2 6 -2 19z" />
<glyph unicode="w" horiz-adv-x="1681" d="M63 1020q0 18 12.5 31.5t30.5 13.5h156q20 0 35.5 -12.5t19.5 -26.5l199 -674l211 668q6 18 21.5 31.5t39.5 13.5h105q25 0 40 -13.5t19 -31.5l213 -668l199 674q4 14 18.5 26.5t36.5 12.5h154q18 0 31.5 -13.5t13.5 -31.5l-4 -19l-293 -950q-8 -25 -23.5 -38t-42.5 -13 h-135q-53 0 -67 51l-211 643l-213 -643q-16 -51 -70 -51h-133q-52 0 -68 51l-292 950q-2 6 -3 19z" />
<glyph unicode="x" horiz-adv-x="1157" d="M45 45q0 18 12 35l351 467l-324 438q-12 16 -12 35q0 18 13 31.5t32 13.5h180q23 0 34 -9t23 -26l230 -305l227 305q2 2 15.5 18.5t41.5 16.5h174q18 0 30.5 -13.5t12.5 -29.5q0 -20 -12 -37l-328 -440l353 -465q12 -16 12 -35q0 -18 -13.5 -31.5t-31.5 -13.5h-188 q-33 0 -56 33l-246 323l-247 -323q-23 -33 -56 -33h-182q-18 0 -31.5 13.5t-13.5 31.5z" />
<glyph unicode="y" horiz-adv-x="1177" d="M53 1020q2 18 14.5 31.5t30.5 13.5h170q37 0 54 -39l272 -668l276 668q20 39 58 39h166q18 0 30.5 -12.5t12.5 -28.5q0 -14 -9 -33l-579 -1341q-16 -39 -57 -39h-164q-17 0 -30 12t-13 29q0 14 8 33l162 378l-394 928q-8 18 -8 29z" />
<glyph unicode="z" horiz-adv-x="1089" d="M82 49v119q0 18 7 32.5t22 35.5l522 612h-486q-20 0 -34.5 15.5t-14.5 35.5v117q0 20 14.5 34.5t34.5 14.5h781q20 0 34.5 -14.5t14.5 -34.5v-127q0 -16 -9.5 -32.5t-19.5 -31.5l-512 -608h533q20 0 34.5 -14.5t14.5 -36.5v-117q0 -20 -13.5 -34.5t-35.5 -14.5h-838 q-20 0 -34.5 14.5t-14.5 34.5z" />
<glyph unicode="{" horiz-adv-x="815" d="M39 604v58q0 29 12 47t41 32l23 13q59 35 84.5 92t25.5 151q0 293 121 441.5t361 150.5h12q18 0 31.5 -12t13.5 -33v-133q0 -18 -12.5 -31.5t-30.5 -13.5h-8q-92 -6 -143.5 -47t-72 -126t-20.5 -230q0 -123 -40 -208t-111 -122q72 -35 111.5 -122t39.5 -208 q0 -145 20.5 -230t72 -127t141.5 -46h10q18 -2 30.5 -14.5t12.5 -30.5v-136q0 -18 -13.5 -31.5t-31.5 -13.5h-10q-242 2 -363 151.5t-121 442.5q0 94 -26.5 152.5t-85.5 93.5l-21 10q-29 14 -41 32.5t-12 47.5z" />
<glyph unicode="|" horiz-adv-x="509" d="M139 -377v2163q0 23 14.5 36t34.5 13h136q20 0 34.5 -14.5t14.5 -34.5v-2163q0 -20 -14.5 -34.5t-34.5 -14.5h-136q-20 0 -34.5 13.5t-14.5 35.5z" />
<glyph unicode="}" horiz-adv-x="815" d="M51 -145q0 18 12.5 30.5t30.5 14.5h8q92 4 143.5 45t72 126t20.5 230q0 125 40 209t111 121q-72 37 -111.5 124t-39.5 208q0 145 -20.5 230t-71.5 126t-142 45l-10 2q-16 0 -29.5 13.5t-13.5 31.5v133q0 20 13.5 32.5t31.5 12.5h10q242 -2 363 -151.5t121 -442.5 q0 -94 26.5 -152.5t85.5 -90.5l21 -11q29 -16 41 -34.5t12 -44.5v-60q0 -27 -12 -45t-41 -35l-23 -10q-57 -35 -83.5 -93.5t-26.5 -152.5q0 -586 -481 -592h-13q-18 0 -31.5 13.5t-13.5 31.5v136z" />
<glyph unicode="~" horiz-adv-x="1140" d="M135 516v119q0 51 66.5 93t158.5 42q63 0 113.5 -10t112.5 -31q59 -18 102 -27.5t96 -9.5q49 0 80 15.5t72 44.5q16 10 33 12q39 0 39 -51v-121q0 -51 -67 -92t-159 -41q-59 0 -105 9t-114 30q-57 18 -103 28.5t-102 10.5q-49 0 -79.5 -15.5t-71.5 -44.5q-20 -12 -33 -12 q-39 0 -39 51z" />
<glyph unicode="&#xa1;" horiz-adv-x="536" d="M123 817v195q0 20 14.5 34.5t36.5 14.5h193q22 0 35.5 -13.5t13.5 -35.5v-195q0 -20 -13.5 -34.5t-35.5 -14.5h-193q-23 0 -37 14.5t-14 34.5zM135 -324v936q0 20 14.5 35t34.5 15h170q23 0 36 -13.5t13 -36.5v-936q0 -23 -13 -36t-36 -13h-170q-20 0 -34.5 14.5 t-14.5 34.5z" />
<glyph unicode="&#xa2;" horiz-adv-x="1185" d="M96 532l2 82q6 188 104.5 308t266.5 149v129q0 23 14.5 36t34.5 13h146q23 0 36 -13t13 -36v-127q131 -20 218 -83.5t127 -137.5t40 -127q0 -18 -15.5 -31.5t-33.5 -13.5h-183q-23 0 -33 9t-20 34q-31 78 -85 112.5t-132 34.5q-96 0 -154.5 -66.5t-62.5 -199.5l-2 -76 l2 -67q6 -135 63.5 -200.5t153.5 -65.5q80 0 133 34.5t84 112.5q8 23 19.5 33t33.5 10h183q18 0 33.5 -13.5t15.5 -31.5q0 -53 -40 -127t-126 -137.5t-219 -83.5v-148q0 -23 -13.5 -36t-35.5 -13h-146q-20 0 -34.5 13.5t-14.5 35.5v150q-168 29 -266.5 148.5t-104.5 308.5z " />
<glyph unicode="&#xa3;" horiz-adv-x="1433" d="M94 39q4 131 66.5 218t165.5 120q-2 57 -13.5 126.5t-13.5 86.5h-156q-20 0 -34.5 14t-14.5 35v115q0 23 14.5 36t34.5 13h115q-6 55 -6 123q0 246 136 388t392 142q164 0 286 -59.5t187.5 -166t69.5 -243.5q0 -18 -12.5 -30.5t-30.5 -12.5h-197q-45 0 -61 49 q-47 225 -242 226q-115 0 -172 -79t-57 -216q0 -84 4 -121h350q20 0 34.5 -14.5t14.5 -34.5v-115q0 -20 -14 -34.5t-35 -14.5h-334q16 -143 19 -217q51 -10 89 -28.5t91 -53.5t91 -52.5t85 -17.5q72 0 110 37t58 107q4 12 13.5 21t23.5 9h143q18 0 28.5 -11t10.5 -28 q-2 -117 -51 -199.5t-128 -126.5t-173 -44q-88 0 -153.5 26.5t-149.5 75.5q-70 41 -111 58.5t-90 17.5q-66 0 -98.5 -33t-48.5 -98q-4 -14 -12.5 -23.5t-26.5 -9.5h-158q-16 0 -27.5 11.5t-11.5 27.5z" />
<glyph unicode="&#xa4;" horiz-adv-x="1230" d="M119 244q0 23 14 35l90 90q-72 111 -71 245q0 131 71 246l-90 90q-14 14 -14 35q0 20 14 35l78 78q14 14 35 14q20 0 35 -14l90 -92q115 74 245 73q129 0 244 -73l92 92q14 14 35 14q20 0 33 -14l80 -78q14 -14 14 -35q0 -20 -14 -35l-92 -90q72 -115 71 -246 q0 -135 -71 -245l92 -90q14 -12 14 -35q0 -20 -14 -35l-80 -78q-14 -14 -33 -14q-16 0 -35 14l-92 92q-109 -74 -244 -73q-137 0 -245 73l-90 -92q-18 -14 -35 -14q-16 0 -35 14l-78 78q-14 14 -14 35zM360 614q0 -106 75 -181t181 -75q107 0 181.5 75t74.5 181t-74.5 181 t-181.5 75q-106 0 -181 -74.5t-75 -181.5z" />
<glyph unicode="&#xa5;" horiz-adv-x="1339" d="M63 1391q0 18 12.5 30.5t28.5 12.5h189q39 0 63 -39l314 -559l315 559q25 39 64 39h186q16 0 29.5 -12.5t13.5 -30.5q0 -5 -6 -23l-379 -688h199q23 0 37 -14.5t14 -34.5v-119q0 -20 -15.5 -34.5t-35.5 -14.5h-277v-72h277q23 0 37 -14.5t14 -34.5v-117 q0 -20 -14.5 -35.5t-36.5 -15.5h-277v-125q0 -23 -14.5 -36t-36.5 -13h-189q-23 0 -37 14.5t-14 34.5v125h-276q-20 0 -34.5 15.5t-14.5 35.5v117q0 20 14 34.5t35 14.5h276v72h-276q-20 0 -34.5 14.5t-14.5 34.5v119q0 20 14 34.5t35 14.5h198l-376 688q-6 10 -7 23z" />
<glyph unicode="&#xa6;" horiz-adv-x="522" d="M143 49v627q0 20 14.5 34.5t35.5 14.5h135q23 0 36 -13.5t13 -35.5v-627q0 -20 -13.5 -34.5t-35.5 -14.5h-135q-21 0 -35.5 14.5t-14.5 34.5zM143 1022v627q0 20 14.5 34.5t35.5 14.5h135q23 0 36 -13.5t13 -35.5v-627q0 -20 -13.5 -34.5t-35.5 -14.5h-135 q-21 0 -35.5 14t-14.5 35z" />
<glyph unicode="&#xa7;" horiz-adv-x="1204" d="M78 645q0 162 151 275q-45 61 -45 165q0 98 49.5 182.5t147.5 135.5t235 51q141 0 244 -46t155 -113.5t56 -133.5v-4q0 -18 -12 -28.5t-31 -10.5h-164q-18 0 -30.5 8.5t-22.5 28.5q-23 45 -63.5 72.5t-129.5 27.5q-82 0 -123.5 -40.5t-41.5 -106.5q0 -47 19.5 -75.5 t74.5 -52.5t164 -52q154 -43 243.5 -96.5t130.5 -128t41 -181.5q0 -160 -151 -274q45 -61 45 -166q0 -98 -50 -182t-147.5 -135.5t-234.5 -51.5q-142 0 -244 46t-155.5 115t-57.5 134v4q0 18 13.5 28.5t31.5 10.5h162q18 0 30.5 -8t22.5 -27q20 -47 62.5 -75.5t130.5 -28.5 q82 0 125 41t43 106q0 47 -19.5 76t-75 52.5t-163.5 52.5q-154 43 -244 96t-131 128t-41 181zM328 655q0 -47 19.5 -80.5t73.5 -63.5t157 -60q86 -25 198 -68q51 23 76 53.5t25 75.5q0 72 -51.5 116t-196.5 87q-127 39 -201 69q-100 -43 -100 -129z" />
<glyph unicode="&#xa8;" horiz-adv-x="882" d="M127 1303v151q0 20 12.5 33.5t32.5 13.5h152q20 0 33.5 -13t13.5 -34v-151q0 -20 -13.5 -33t-33.5 -13h-152q-20 0 -32.5 12.5t-12.5 33.5zM514 1303v151q0 20 12.5 33.5t32.5 13.5h152q20 0 33.5 -13t13.5 -34v-151q0 -20 -13.5 -33t-33.5 -13h-152q-20 0 -32.5 12.5 t-12.5 33.5z" />
<glyph unicode="&#xa9;" horiz-adv-x="1673" d="M98 717q0 201 99.5 369.5t268.5 268t370 99.5t369.5 -99.5t268 -268t99.5 -369.5t-99.5 -370t-268.5 -268t-369 -99q-201 0 -370 99t-268.5 268t-99.5 370zM256 717q0 -160 78 -295t211 -215t291 -80q159 0 292.5 80t211 215t77.5 295t-77.5 295t-211 215t-292.5 80 q-158 0 -291 -80t-211 -215t-78 -295zM492 719l2 74q6 141 97 231t245 90q111 0 188.5 -36t115.5 -91t40 -110v-5q0 -18 -13.5 -29.5t-31.5 -11.5h-103q-20 0 -30.5 11.5t-18.5 29.5q-16 43 -51 62.5t-96 19.5q-141 0 -152 -166l-2 -69l2 -70q10 -166 152 -166q61 0 96 19.5 t51 62.5q8 20 18.5 30.5t30.5 10.5h103q20 0 33.5 -12t11.5 -33q-2 -55 -40 -110.5t-116 -91t-188 -35.5q-154 0 -245 90t-97 231z" />
<glyph unicode="&#xaa;" horiz-adv-x="737" d="M88 1038q0 78 61.5 126t169.5 65l121 18q0 29 -13 47.5t-60 18.5q-39 0 -70 -23q-6 -2 -17.5 -8t-25.5 -6h-94q-14 0 -24.5 7t-10.5 20q0 25 29.5 58.5t86 58t132.5 24.5q117 0 181 -59.5t64 -163.5v-293q0 -16 -11 -27.5t-27 -11.5h-97q-16 0 -27.5 11t-11.5 28v20 q-18 -31 -63 -50t-96 -19q-88 0 -142.5 45t-54.5 114zM260 1049q0 -18 18.5 -29.5t47.5 -11.5q59 0 86.5 33.5t27.5 91.5l-80 -15q-57 -10 -78.5 -27.5t-21.5 -41.5z" />
<glyph unicode="&#xab;" horiz-adv-x="1259" d="M74 637v74q4 39 32 67l410 398q23 18 41 18t30.5 -12.5t12.5 -30.5v-141q0 -29 -8 -45.5t-29 -36.5l-262 -254l262 -254q20 -20 28.5 -36.5t8.5 -45.5v-141q0 -18 -12.5 -30.5t-30.5 -12.5t-41 18l-410 399q-29 27 -32 66zM618 637v74q4 39 33 67l410 398q23 18 41 18 t30.5 -12.5t12.5 -30.5v-141q0 -29 -8.5 -45.5t-28.5 -36.5l-262 -254l262 -254q20 -20 28.5 -36.5t8.5 -45.5v-141q0 -18 -12.5 -30.5t-30.5 -12.5t-41 18l-410 399q-29 27 -33 66z" />
<glyph unicode="&#xac;" horiz-adv-x="1175" d="M127 551v117q0 23 14.5 36t34.5 13h813q23 0 37 -14.5t14 -34.5v-371q0 -20 -15 -34.5t-36 -14.5h-119q-20 0 -34.5 14t-14.5 35v205h-645q-20 0 -34.5 14t-14.5 35z" />
<glyph unicode="&#xad;" horiz-adv-x="512" />
<glyph unicode="&#xae;" horiz-adv-x="1673" d="M98 717q0 201 99.5 369.5t268.5 268t370 99.5t369.5 -99.5t268 -268t99.5 -369.5t-99.5 -370t-268.5 -268t-369 -99q-201 0 -370 99t-268.5 268t-99.5 370zM256 717q0 -160 78 -295t211 -215t291 -80q159 0 292.5 80t211 215t77.5 295t-77.5 295t-211 215t-292.5 80 q-158 0 -291 -80t-211 -215t-78 -295zM545 389v660q0 20 12 32.5t33 12.5h276q129 0 214 -59.5t85 -186.5q0 -78 -35.5 -131t-97.5 -80l121 -219q8 -12 8 -29q0 -18 -11 -31.5t-34 -13.5h-90q-37 0 -59 39l-113 219h-125v-213q0 -20 -12 -32.5t-33 -12.5h-94q-21 0 -33 12.5 t-12 32.5zM729 756h135q113 0 113 92q0 41 -26.5 67.5t-86.5 26.5h-135v-186z" />
<glyph unicode="&#xaf;" horiz-adv-x="862" d="M127 1296v107q0 20 12.5 32.5t32.5 12.5h516q20 0 33.5 -12.5t13.5 -32.5v-107q0 -20 -13 -32.5t-34 -12.5h-516q-20 0 -32.5 12.5t-12.5 32.5z" />
<glyph unicode="&#xb0;" horiz-adv-x="819" d="M80 1135q0 90 44 162.5t119.5 114.5t166.5 42q90 0 165.5 -42t119.5 -114.5t44 -162.5t-44 -163t-119.5 -115t-165.5 -42q-91 0 -166.5 42t-119.5 114.5t-44 163.5zM254 1135q0 -70 43 -113t113 -43q69 0 112 43t43 113t-43 112.5t-112 42.5q-70 0 -113 -43t-43 -112z " />
<glyph unicode="&#xb1;" horiz-adv-x="1155" d="M115 797v110q0 20 14 34.5t37 14.5h301v299q0 20 14.5 35t34.5 15h125q23 0 36 -13.5t13 -36.5v-299h301q23 0 36 -13t13 -36v-110q0 -20 -13 -34.5t-36 -14.5h-301v-310q0 -20 -13 -34.5t-36 -14.5h-125q-20 0 -34.5 14.5t-14.5 34.5v310h-301q-23 0 -37 14t-14 35z M137 49v111q0 23 14.5 36t34.5 13h785q23 0 36 -13.5t13 -35.5v-111q0 -20 -13.5 -34.5t-35.5 -14.5h-785q-20 0 -34.5 14.5t-14.5 34.5z" />
<glyph unicode="&#xb2;" horiz-adv-x="714" d="M57 762v57q0 16 10.5 31.5t38.5 38.5l103 74q143 104 190 149t47 98q0 37 -25.5 60.5t-68.5 23.5q-49 0 -67.5 -18.5t-34.5 -48.5q-12 -23 -22.5 -30t-26.5 -7h-90q-37 0 -37 35q0 59 38 109t102.5 80t137.5 30q125 0 200 -64.5t75 -162.5q0 -96 -62.5 -166t-222.5 -179 h270q20 0 32.5 -12t12.5 -33v-65q0 -20 -12 -32.5t-33 -12.5h-510q-20 0 -32.5 12t-12.5 33z" />
<glyph unicode="&#xb3;" horiz-adv-x="712" d="M49 885v4q0 14 12.5 24.5t22.5 10.5h68q29 0 61 -17q10 -6 24.5 -19.5t38 -21.5t64.5 -8q53 0 87 21.5t34 56.5q0 41 -29 57.5t-84 16.5h-90q-18 0 -30.5 12t-12.5 33v45q0 23 23 45l141 129h-250q-20 0 -32.5 12t-12.5 33v70q0 20 12.5 32.5t32.5 12.5h440 q20 0 32.5 -12.5t12.5 -32.5v-62q0 -23 -6 -36t-24 -29l-138 -115q98 -12 150.5 -67.5t52.5 -145.5q0 -104 -82 -165.5t-221 -61.5q-143 0 -217 54t-80 124z" />
<glyph unicode="&#xb4;" horiz-adv-x="755" d="M127 1251q0 16 10 27l168 203q18 23 33.5 31t42.5 8h207q18 0 28.5 -11.5t10.5 -29.5q0 -14 -11 -25l-256 -209q-18 -14 -33.5 -20t-37.5 -6h-129q-33 -1 -33 32z" />
<glyph unicode="&#xb5;" horiz-adv-x="1296" d="M135 -360v1376q0 20 14.5 34.5t36.5 14.5h187q23 0 36 -13.5t13 -35.5v-563q0 -113 68.5 -182.5t160.5 -69.5t161 69.5t69 182.5v563q0 23 14 36t35 13h182q23 0 36 -13.5t13 -35.5v-967q0 -20 -13 -34.5t-36 -14.5h-170q-20 0 -34.5 14.5t-14.5 34.5v84 q-45 -61 -107.5 -96t-152.5 -35q-66 0 -116 20.5t-95 59.5v-442q0 -20 -14.5 -35t-34.5 -15h-187q-20 0 -35.5 14.5t-15.5 35.5z" />
<glyph unicode="&#xb6;" horiz-adv-x="1191" d="M57 1055q0 102 51.5 189t138.5 138.5t191 51.5h557q20 0 34.5 -14.5t14.5 -35.5v-1540q0 -20 -14 -34.5t-35 -14.5h-125q-20 0 -34.5 13.5t-14.5 35.5v1393h-162v-1393q0 -23 -13 -36t-36 -13h-123q-20 0 -34.5 13.5t-14.5 35.5v830q-104 0 -191 51t-138.5 138t-51.5 192 z" />
<glyph unicode="&#xb7;" horiz-adv-x="675" d="M98 657q0 98 71 169t169 71t169 -70.5t71 -169.5q0 -98 -71 -168.5t-169 -70.5t-169 70.5t-71 168.5z" />
<glyph unicode="&#xb8;" horiz-adv-x="622" d="M127 -365q0 8 10 19l33 31q10 10 20 10t41 -17.5t68 -17.5q33 0 54.5 19.5t21.5 50.5q0 29 -21.5 47t-54.5 18q-20 0 -50 -9t-40 -9q-14 0 -27 12l-37 39q-8 10 -8 22q0 16 13 41l71 164h127l-82 -164q23 14 70 15q72 0 117 -48t45 -126t-52.5 -130.5t-142.5 -52.5 q-70 0 -123 29t-53 57z" />
<glyph unicode="&#xb9;" horiz-adv-x="530" d="M27 1225q0 20 18 35l211 159q20 14 47 15h92q20 0 32.5 -12.5t12.5 -32.5v-627q0 -20 -12 -32.5t-33 -12.5h-96q-20 0 -32.5 12t-12.5 33v455l-113 -84q-10 -8 -26 -9q-20 0 -37 19l-41 53q-10 14 -10 29z" />
<glyph unicode="&#xba;" horiz-adv-x="729" d="M92 1161l2 56q6 111 80 169t193 58t191.5 -58.5t78.5 -168.5q2 -10 2 -56q0 -45 -2 -55q-6 -111 -75.5 -169t-194.5 -58q-127 0 -197 57t-76 170zM274 1161l2 -45q2 -51 24 -74.5t67 -23.5q43 0 64.5 23.5t23.5 74.5q4 20 4 45t-4 45q-4 98 -88 99q-86 0 -91 -99z" />
<glyph unicode="&#xbb;" horiz-adv-x="1259" d="M115 197v141q0 29 8 45t29 37l262 254l-262 254q-20 20 -28.5 36.5t-8.5 45.5v141q0 18 12 30.5t31 12.5q18 0 41 -18l409 -398q29 -29 33 -67v-74q-4 -39 -33 -66l-409 -399q-20 -18 -41 -18q-19 0 -31 12t-12 31zM659 197v141q0 29 8.5 45t28.5 37l262 254l-262 254 q-20 20 -28.5 36.5t-8.5 45.5v141q0 18 12.5 30.5t30.5 12.5q20 0 41 -18l410 -398q29 -29 33 -67v-74q-4 -39 -33 -66l-410 -399q-20 -18 -41 -18q-18 0 -30.5 12t-12.5 31z" />
<glyph unicode="&#xbc;" horiz-adv-x="1527" d="M27 1225q0 20 18 35l211 159q20 14 47 15h92q20 0 32.5 -12.5t12.5 -32.5v-627q0 -20 -12 -32.5t-33 -12.5h-96q-20 0 -32.5 12t-12.5 33v455l-113 -84q-10 -8 -26 -9q-20 0 -37 19l-41 53q-10 14 -10 29zM86 41q0 12 8 22l1009 1332q16 20 30.5 29.5t39.5 9.5h84 q20 0 32.5 -11.5t12.5 -29.5q0 -12 -8 -23l-1012 -1331q-16 -20 -30.5 -29.5t-38.5 -9.5h-84q-21 0 -32 11.5t-11 29.5zM793 172v74q0 29 25 61l272 371q27 37 61 37h125q20 0 32.5 -12.5t12.5 -32.5v-381h72q20 0 32.5 -12.5t12.5 -32.5v-72q0 -20 -12 -32.5t-33 -12.5h-72 v-84q0 -20 -12 -32.5t-33 -12.5h-90q-20 0 -32.5 12t-12.5 33v84h-303q-20 0 -32.5 12t-12.5 33zM988 285h157v223z" />
<glyph unicode="&#xbd;" horiz-adv-x="1538" d="M27 1225q0 20 18 35l211 159q20 14 47 15h92q20 0 32.5 -12.5t12.5 -32.5v-627q0 -20 -12 -32.5t-33 -12.5h-96q-20 0 -32.5 12t-12.5 33v455l-113 -84q-10 -8 -26 -9q-20 0 -37 19l-41 53q-10 14 -10 29zM86 41q0 12 8 22l1009 1332q16 20 30.5 29.5t39.5 9.5h84 q20 0 32.5 -11.5t12.5 -29.5q0 -12 -8 -23l-1012 -1331q-16 -20 -30.5 -29.5t-38.5 -9.5h-84q-21 0 -32 11.5t-11 29.5zM839 45v57q0 16 10.5 31.5t38.5 38.5l103 74q143 104 190 149t47 98q0 37 -25.5 60.5t-68.5 23.5q-49 0 -67.5 -18t-34.5 -49q-12 -23 -22.5 -30 t-26.5 -7h-90q-37 0 -37 35q0 59 38 109t102.5 80t137.5 30q125 0 200 -64.5t75 -162.5q0 -96 -62.5 -166t-222.5 -179h270q20 0 32.5 -12t12.5 -33v-65q0 -20 -12 -32.5t-33 -12.5h-510q-20 0 -32.5 12t-12.5 33z" />
<glyph unicode="&#xbe;" horiz-adv-x="1677" d="M49 885v4q0 14 12.5 24.5t22.5 10.5h68q29 0 61 -17q10 -6 24.5 -19.5t38 -21.5t64.5 -8q53 0 87 21.5t34 56.5q0 41 -29 57.5t-84 16.5h-90q-18 0 -30.5 12t-12.5 33v45q0 23 23 45l141 129h-250q-20 0 -32.5 12t-12.5 33v70q0 20 12.5 32.5t32.5 12.5h440 q20 0 32.5 -12.5t12.5 -32.5v-62q0 -23 -6 -36t-24 -29l-138 -115q98 -12 150.5 -67.5t52.5 -145.5q0 -104 -82 -165.5t-221 -61.5q-143 0 -217 54t-80 124zM269 41q0 12 8 22l1009 1332q16 20 30.5 29.5t39.5 9.5h84q20 0 32.5 -11.5t12.5 -29.5q0 -12 -8 -23l-1012 -1331 q-16 -20 -30.5 -29.5t-38.5 -9.5h-84q-21 0 -32 11.5t-11 29.5zM981 170v74q0 29 25 61l272 371q27 37 61 37h125q20 0 32.5 -12.5t12.5 -32.5v-381h72q20 0 32.5 -12.5t12.5 -32.5v-72q0 -20 -12 -32.5t-33 -12.5h-72v-84q0 -20 -12 -32.5t-33 -12.5h-90q-20 0 -32.5 12 t-12.5 33v84h-303q-20 0 -32.5 12t-12.5 33zM1176 283h157v223z" />
<glyph unicode="&#xbf;" horiz-adv-x="1146" d="M63 -25q0 102 46.5 178t136.5 175q66 70 101.5 120t47.5 107q8 51 11 70q10 27 22 39t35 12h203q18 0 30.5 -12.5t12.5 -28.5q0 -43 -2 -66q-10 -96 -61.5 -169.5t-141.5 -163.5q-70 -70 -103.5 -115t-38.5 -94q-8 -84 54.5 -133.5t150.5 -49.5q199 0 240 199 q14 47 59 47h178q20 0 34 -14.5t14 -36.5q-4 -113 -69 -211t-185.5 -158.5t-284.5 -60.5q-170 0 -279.5 54t-160 138t-50.5 174zM418 831v183q0 20 14 34.5t37 14.5h203q20 0 34.5 -14.5t14.5 -34.5v-183q0 -20 -14.5 -34.5t-34.5 -14.5h-203q-20 0 -35.5 14.5t-15.5 34.5z " />
<glyph unicode="&#xc0;" horiz-adv-x="1421" d="M29 43l4 18l491 1321q20 51 74 52h225q53 0 74 -52l492 -1321l4 -18q0 -18 -13.5 -30.5t-29.5 -12.5h-183q-43 0 -59 39l-94 248h-606l-95 -248q-16 -39 -59 -39h-182q-19 0 -31 12.5t-12 30.5zM332 1796q0 18 10.5 29.5t28.5 11.5h223q27 0 41.5 -8t34.5 -31l166 -203 q10 -10 10 -26q0 -33 -33 -33h-143q-22 0 -37.5 6t-34.5 21l-256 209q-10 10 -10 24zM479 524h463l-231 631z" />
<glyph unicode="&#xc1;" horiz-adv-x="1421" d="M29 43l4 18l491 1321q20 51 74 52h225q53 0 74 -52l492 -1321l4 -18q0 -18 -13.5 -30.5t-29.5 -12.5h-183q-43 0 -59 39l-94 248h-606l-95 -248q-16 -39 -59 -39h-182q-19 0 -31 12.5t-12 30.5zM479 524h463l-231 631zM584 1569q0 16 10 26l168 203q18 23 33.5 31t42.5 8 h221q18 0 28.5 -11t10.5 -30q0 -14 -10 -24l-256 -209q-18 -14 -34 -20.5t-38 -6.5h-143q-33 0 -33 33z" />
<glyph unicode="&#xc2;" horiz-adv-x="1421" d="M29 43l4 18l491 1321q20 51 74 52h225q53 0 74 -52l492 -1321l4 -18q0 -18 -13.5 -30.5t-29.5 -12.5h-183q-43 0 -59 39l-94 248h-606l-95 -248q-16 -39 -59 -39h-182q-19 0 -31 12.5t-12 30.5zM361 1563q0 16 18 34l201 207q18 20 33.5 26.5t35.5 6.5h123q20 0 34.5 -6 t35.5 -27l198 -207q18 -18 19 -34q0 -27 -29 -27h-82q-37 0 -63 14l-174 109l-174 -109q-27 -14 -64 -14h-82q-30 0 -30 27zM479 524h463l-231 631z" />
<glyph unicode="&#xc3;" horiz-adv-x="1421" d="M29 43l4 18l491 1321q20 51 74 52h225q53 0 74 -52l492 -1321l4 -18q0 -18 -13.5 -30.5t-29.5 -12.5h-183q-43 0 -59 39l-94 248h-606l-95 -248q-16 -39 -59 -39h-182q-19 0 -31 12.5t-12 30.5zM388 1571q0 47 22.5 100t68.5 90t113 37q39 0 67 -10t66 -31 q29 -16 46.5 -23.5t37.5 -7.5q18 0 28.5 8.5t23.5 24.5q10 16 18 22.5t23 6.5h94q16 0 26.5 -10.5t10.5 -24.5q0 -47 -23.5 -100.5t-71 -90t-112.5 -36.5q-39 0 -66.5 10t-66.5 31q-29 16 -46.5 23t-37.5 7q-18 0 -28.5 -7t-22.5 -25q-16 -29 -39 -29h-97q-14 0 -24 10 t-10 25zM479 524h463l-231 631z" />
<glyph unicode="&#xc4;" horiz-adv-x="1421" d="M29 43l4 18l491 1321q20 51 74 52h225q53 0 74 -52l492 -1321l4 -18q0 -18 -13.5 -30.5t-29.5 -12.5h-183q-43 0 -59 39l-94 248h-606l-95 -248q-16 -39 -59 -39h-182q-19 0 -31 12.5t-12 30.5zM365 1581v152q0 20 12 33.5t33 13.5h151q20 0 34 -13.5t14 -33.5v-152 q0 -20 -13.5 -32.5t-34.5 -12.5h-151q-21 0 -33 12.5t-12 32.5zM479 524h463l-231 631zM813 1581v152q0 20 12.5 33.5t32.5 13.5h152q20 0 33.5 -13.5t13.5 -33.5v-152q0 -20 -13.5 -32.5t-33.5 -12.5h-152q-20 0 -32.5 12.5t-12.5 32.5z" />
<glyph unicode="&#xc5;" horiz-adv-x="1421" d="M29 43l4 18l491 1321q20 51 74 52h225q53 0 74 -52l492 -1321l4 -18q0 -18 -13.5 -30.5t-29.5 -12.5h-183q-43 0 -59 39l-94 248h-606l-95 -248q-16 -39 -59 -39h-182q-19 0 -31 12.5t-12 30.5zM479 524h463l-231 631zM531 1686q0 74 52 123t128 49t128 -49.5t52 -122.5 q0 -74 -52 -122t-128 -48t-128 48t-52 122zM649 1686q0 -27 17.5 -44.5t44.5 -17.5q26 0 43.5 17.5t17.5 44.5t-17.5 44t-43.5 17q-27 0 -44.5 -17.5t-17.5 -43.5z" />
<glyph unicode="&#xc6;" horiz-adv-x="1955" d="M10 43q0 6 4 23q61 176 180 433t449 883q20 51 70 52h1079q23 0 37 -14.5t14 -37.5v-137q0 -23 -14 -36t-37 -13h-647v-358h602q23 0 37 -14.5t14 -37.5v-129q0 -23 -14.5 -36t-36.5 -13h-602v-370h663q23 0 37.5 -13.5t14.5 -36.5v-139q0 -23 -14.5 -36t-37.5 -13h-895 q-20 0 -34.5 14.5t-14.5 34.5v238h-438q-117 -211 -129 -248q-18 -39 -59 -39h-187q-16 0 -28.5 12.5t-12.5 30.5zM510 524h354v664h-26z" />
<glyph unicode="&#xc7;" horiz-adv-x="1402" d="M109 715q0 127 2 184q10 262 165.5 408.5t436.5 146.5q182 0 317 -62.5t210 -171t79 -243.5v-4q0 -16 -13.5 -27.5t-29.5 -11.5h-199q-25 0 -37 11t-20 40q-31 127 -106.5 179.5t-200.5 52.5q-293 0 -305 -328q-2 -55 -2 -170t2 -174q12 -328 305 -328q123 0 199.5 52.5 t107.5 179.5q8 29 20.5 40t36.5 11h199q18 0 31.5 -12.5t11.5 -30.5q-4 -135 -79 -244t-210 -171t-317 -62l-43 -89q23 14 71 15q72 0 116 -48t44 -126t-51 -130.5t-141 -52.5q-70 0 -123.5 29t-53.5 57q0 10 9 19l34 31q10 10 21 10q8 0 39 -17.5t70 -17.5q33 0 54 19.5 t21 50.5q0 29 -21.5 47t-53.5 18q-20 0 -50 -9t-41 -9q-16 0 -28 12l-37 39q-8 10 -8 22q0 16 12 41l41 97q-227 29 -350 170t-133 377q-2 55 -2 180z" />
<glyph unicode="&#xc8;" horiz-adv-x="1275" d="M160 49v1333q0 23 13 37.5t36 14.5h903q23 0 37 -14.5t14 -37.5v-137q0 -23 -14 -36t-37 -13h-672v-358h627q23 0 37 -14.5t14 -37.5v-129q0 -23 -14 -36t-37 -13h-627v-370h688q23 0 37.5 -13.5t14.5 -36.5v-139q0 -23 -14.5 -36t-37.5 -13h-919q-21 0 -35 14.5 t-14 34.5zM260 1796q0 18 10.5 29.5t28.5 11.5h223q27 0 41.5 -8t34.5 -31l166 -203q10 -10 10 -26q0 -33 -33 -33h-143q-22 0 -37.5 6t-34.5 21l-256 209q-10 10 -10 24z" />
<glyph unicode="&#xc9;" horiz-adv-x="1275" d="M160 49v1333q0 23 13 37.5t36 14.5h903q23 0 37 -14.5t14 -37.5v-137q0 -23 -14 -36t-37 -13h-672v-358h627q23 0 37 -14.5t14 -37.5v-129q0 -23 -14 -36t-37 -13h-627v-370h688q23 0 37.5 -13.5t14.5 -36.5v-139q0 -23 -14.5 -36t-37.5 -13h-919q-21 0 -35 14.5 t-14 34.5zM512 1569q0 16 10 26l168 203q18 23 33.5 31t42.5 8h221q18 0 28.5 -11t10.5 -30q0 -14 -10 -24l-256 -209q-18 -14 -34 -20.5t-38 -6.5h-143q-33 0 -33 33z" />
<glyph unicode="&#xca;" horiz-adv-x="1275" d="M160 49v1333q0 23 13 37.5t36 14.5h903q23 0 37 -14.5t14 -37.5v-137q0 -23 -14 -36t-37 -13h-672v-358h627q23 0 37 -14.5t14 -37.5v-129q0 -23 -14 -36t-37 -13h-627v-370h688q23 0 37.5 -13.5t14.5 -36.5v-139q0 -23 -14.5 -36t-37.5 -13h-919q-21 0 -35 14.5 t-14 34.5zM289 1563q0 16 18 34l201 207q18 20 33.5 26.5t35.5 6.5h123q20 0 34.5 -6t35.5 -27l198 -207q18 -18 19 -34q0 -27 -29 -27h-82q-37 0 -63 14l-174 109l-174 -109q-27 -14 -64 -14h-82q-30 0 -30 27z" />
<glyph unicode="&#xcb;" horiz-adv-x="1275" d="M160 49v1333q0 23 13 37.5t36 14.5h903q23 0 37 -14.5t14 -37.5v-137q0 -23 -14 -36t-37 -13h-672v-358h627q23 0 37 -14.5t14 -37.5v-129q0 -23 -14 -36t-37 -13h-627v-370h688q23 0 37.5 -13.5t14.5 -36.5v-139q0 -23 -14.5 -36t-37.5 -13h-919q-21 0 -35 14.5 t-14 34.5zM293 1581v152q0 20 12 33.5t33 13.5h151q20 0 34 -13.5t14 -33.5v-152q0 -20 -13.5 -32.5t-34.5 -12.5h-151q-21 0 -33 12.5t-12 32.5zM741 1581v152q0 20 12.5 33.5t32.5 13.5h152q20 0 33.5 -13.5t13.5 -33.5v-152q0 -20 -13.5 -32.5t-33.5 -12.5h-152 q-20 0 -32.5 12.5t-12.5 32.5z" />
<glyph unicode="&#xcc;" horiz-adv-x="614" d="M-72 1796q0 18 10.5 29.5t28.5 11.5h223q27 0 41.5 -8t34.5 -31l166 -203q10 -10 10 -26q0 -33 -33 -33h-143q-22 0 -37.5 6t-34.5 21l-256 209q-10 10 -10 24zM160 49v1335q0 23 14 36.5t35 13.5h197q23 0 36 -13.5t13 -36.5v-1335q0 -20 -13.5 -34.5t-35.5 -14.5h-197 q-21 0 -35 14.5t-14 34.5z" />
<glyph unicode="&#xcd;" horiz-adv-x="614" d="M160 49v1335q0 23 14 36.5t35 13.5h197q23 0 36 -13.5t13 -36.5v-1335q0 -20 -13.5 -34.5t-35.5 -14.5h-197q-21 0 -35 14.5t-14 34.5zM180 1569q0 16 10 26l168 203q18 23 33.5 31t42.5 8h221q18 0 28.5 -11t10.5 -30q0 -14 -10 -24l-256 -209q-18 -14 -34 -20.5 t-38 -6.5h-143q-33 0 -33 33z" />
<glyph unicode="&#xce;" horiz-adv-x="614" d="M-43 1563q0 16 18 34l201 207q18 20 33.5 26.5t35.5 6.5h123q20 0 34.5 -6t35.5 -27l198 -207q18 -18 19 -34q0 -27 -29 -27h-82q-37 0 -63 14l-174 109l-174 -109q-27 -14 -64 -14h-82q-30 0 -30 27zM160 49v1335q0 23 14 36.5t35 13.5h197q23 0 36 -13.5t13 -36.5 v-1335q0 -20 -13.5 -34.5t-35.5 -14.5h-197q-21 0 -35 14.5t-14 34.5z" />
<glyph unicode="&#xcf;" horiz-adv-x="614" d="M-39 1581v152q0 20 12 33.5t33 13.5h151q20 0 34 -13.5t14 -33.5v-152q0 -20 -13.5 -32.5t-34.5 -12.5h-151q-21 0 -33 12.5t-12 32.5zM160 49v1335q0 23 14 36.5t35 13.5h197q23 0 36 -13.5t13 -36.5v-1335q0 -20 -13.5 -34.5t-35.5 -14.5h-197q-21 0 -35 14.5t-14 34.5 zM409 1581v152q0 20 12.5 33.5t32.5 13.5h152q20 0 33.5 -13.5t13.5 -33.5v-152q0 -20 -13.5 -32.5t-33.5 -12.5h-152q-20 0 -32.5 12.5t-12.5 32.5z" />
<glyph unicode="&#xd0;" horiz-adv-x="1470" d="M31 668v106q0 20 14 34.5t35 14.5h106v559q0 23 14.5 37.5t35.5 14.5h501q305 0 460 -142.5t157 -414.5q2 -57 2 -158q0 -102 -2 -160q-2 -285 -152.5 -422t-458.5 -137h-507q-21 0 -35.5 14.5t-14.5 34.5v569h-106q-20 0 -34.5 14.5t-14.5 35.5zM475 238h262 q170 0 244 75.5t76 251.5q2 57 2 154q0 94 -2 151q-2 170 -79 248t-247 78h-256v-373h227q20 0 35 -14t15 -35v-106q0 -20 -13.5 -35t-36.5 -15h-227v-380z" />
<glyph unicode="&#xd1;" horiz-adv-x="1447" d="M160 49v1333q0 23 13 37.5t36 14.5h160q39 0 59 -35l586 -910v893q0 23 13 37.5t36 14.5h176q23 0 37 -14.5t14 -37.5v-1331q0 -23 -14 -37t-35 -14h-162q-41 0 -61 35l-584 889v-875q0 -20 -13 -34.5t-36 -14.5h-176q-21 0 -35 14.5t-14 34.5zM402 1571q0 47 22.5 100 t68.5 90t113 37q39 0 67 -10t66 -31q29 -16 46.5 -23.5t37.5 -7.5q18 0 28.5 8.5t23.5 24.5q10 16 18 22.5t23 6.5h94q16 0 26.5 -10.5t10.5 -24.5q0 -47 -23.5 -100.5t-71 -90t-112.5 -36.5q-39 0 -66.5 10t-66.5 31q-29 16 -46.5 23t-37.5 7q-18 0 -28.5 -7t-22.5 -25 q-16 -29 -39 -29h-97q-14 0 -24 10t-10 25z" />
<glyph unicode="&#xd2;" horiz-adv-x="1423" d="M111 715q0 117 2 176q8 272 167.5 417.5t432.5 145.5q270 0 431 -145.5t169 -417.5q4 -119 4 -176q0 -55 -4 -174q-8 -279 -165 -420t-435 -141q-281 0 -436.5 141t-163.5 420q-2 59 -2 174zM334 1796q0 18 10.5 29.5t28.5 11.5h223q27 0 41.5 -8t34.5 -31l166 -203 q10 -10 10 -26q0 -33 -33 -33h-143q-22 0 -37.5 6t-34.5 21l-256 209q-10 10 -10 24zM408 717q0 -104 2 -166q4 -168 84.5 -251t218.5 -83q137 0 217 82t86 252q4 123 4 166q0 47 -4 166q-6 168 -88 251t-215 83q-135 0 -217 -83t-86 -251q-2 -59 -2 -166z" />
<glyph unicode="&#xd3;" horiz-adv-x="1423" d="M111 715q0 117 2 176q8 272 167.5 417.5t432.5 145.5q270 0 431 -145.5t169 -417.5q4 -119 4 -176q0 -55 -4 -174q-8 -279 -165 -420t-435 -141q-281 0 -436.5 141t-163.5 420q-2 59 -2 174zM408 717q0 -104 2 -166q4 -168 84.5 -251t218.5 -83q137 0 217 82t86 252 q4 123 4 166q0 47 -4 166q-6 168 -88 251t-215 83q-135 0 -217 -83t-86 -251q-2 -59 -2 -166zM586 1569q0 16 10 26l168 203q18 23 33.5 31t42.5 8h221q18 0 28.5 -11t10.5 -30q0 -14 -10 -24l-256 -209q-18 -14 -34 -20.5t-38 -6.5h-143q-33 0 -33 33z" />
<glyph unicode="&#xd4;" horiz-adv-x="1423" d="M111 715q0 117 2 176q8 272 167.5 417.5t432.5 145.5q270 0 431 -145.5t169 -417.5q4 -119 4 -176q0 -55 -4 -174q-8 -279 -165 -420t-435 -141q-281 0 -436.5 141t-163.5 420q-2 59 -2 174zM363 1563q0 16 18 34l201 207q18 20 33.5 26.5t35.5 6.5h123q20 0 34.5 -6 t35.5 -27l198 -207q18 -18 19 -34q0 -27 -29 -27h-82q-37 0 -63 14l-174 109l-174 -109q-27 -14 -64 -14h-82q-30 0 -30 27zM408 717q0 -104 2 -166q4 -168 84.5 -251t218.5 -83q137 0 217 82t86 252q4 123 4 166q0 47 -4 166q-6 168 -88 251t-215 83q-135 0 -217 -83 t-86 -251q-2 -59 -2 -166z" />
<glyph unicode="&#xd5;" horiz-adv-x="1423" d="M111 715q0 117 2 176q8 272 167.5 417.5t432.5 145.5q270 0 431 -145.5t169 -417.5q4 -119 4 -176q0 -55 -4 -174q-8 -279 -165 -420t-435 -141q-281 0 -436.5 141t-163.5 420q-2 59 -2 174zM390 1571q0 47 22.5 100t68.5 90t113 37q39 0 67 -10t66 -31 q29 -16 46.5 -23.5t37.5 -7.5q18 0 28.5 8.5t23.5 24.5q10 16 18 22.5t23 6.5h94q16 0 26.5 -10.5t10.5 -24.5q0 -47 -23.5 -100.5t-71 -90t-112.5 -36.5q-39 0 -66.5 10t-66.5 31q-29 16 -46.5 23t-37.5 7q-18 0 -28.5 -7t-22.5 -25q-16 -29 -39 -29h-97q-14 0 -24 10 t-10 25zM408 717q0 -104 2 -166q4 -168 84.5 -251t218.5 -83q137 0 217 82t86 252q4 123 4 166q0 47 -4 166q-6 168 -88 251t-215 83q-135 0 -217 -83t-86 -251q-2 -59 -2 -166z" />
<glyph unicode="&#xd6;" horiz-adv-x="1423" d="M111 715q0 117 2 176q8 272 167.5 417.5t432.5 145.5q270 0 431 -145.5t169 -417.5q4 -119 4 -176q0 -55 -4 -174q-8 -279 -165 -420t-435 -141q-281 0 -436.5 141t-163.5 420q-2 59 -2 174zM367 1581v152q0 20 12 33.5t33 13.5h151q20 0 34 -13.5t14 -33.5v-152 q0 -20 -13.5 -32.5t-34.5 -12.5h-151q-21 0 -33 12.5t-12 32.5zM408 717q0 -104 2 -166q4 -168 84.5 -251t218.5 -83q137 0 217 82t86 252q4 123 4 166q0 47 -4 166q-6 168 -88 251t-215 83q-135 0 -217 -83t-86 -251q-2 -59 -2 -166zM815 1581v152q0 20 12.5 33.5 t32.5 13.5h152q20 0 33.5 -13.5t13.5 -33.5v-152q0 -20 -13.5 -32.5t-33.5 -12.5h-152q-20 0 -32.5 12.5t-12.5 32.5z" />
<glyph unicode="&#xd7;" horiz-adv-x="1191" d="M109 360q0 16 14 35l287 285l-287 289q-14 18 -14 35q0 16 14 34l117 117q14 14 34 14t35 -14l287 -289l287 287q16 16 35 16q18 0 34 -16l117 -117q14 -12 14 -35q0 -20 -14 -34l-287 -287l287 -285q14 -14 14 -35q0 -20 -14 -34l-117 -117q-18 -14 -34 -14t-35 14 l-287 287l-287 -287q-14 -14 -35 -14q-20 0 -34 14l-117 117q-14 18 -14 34z" />
<glyph unicode="&#xd8;" horiz-adv-x="1480" d="M23 401v115q0 25 10 37t35 22l73 27l-2 119q0 51 4 170q8 272 169 417.5t431 145.5q221 0 370 -100.5t200 -292.5l80 31q16 6 24 6q18 0 29.5 -10.5t11.5 -28.5v-117q0 -25 -10 -36t-35 -21l-67 -25l2 -135q0 -61 -5 -184q-8 -279 -163.5 -420t-436.5 -141 q-239 0 -386.5 103t-190.5 314l-78 -28q-16 -6 -25 -7q-18 0 -29 10.5t-11 28.5zM438 721l600 231q-18 133 -96 199t-199 66q-135 0 -216 -83t-87 -251q-4 -115 -2 -162zM442 506q16 -147 95 -218t206 -71q138 0 218.5 83t85.5 251q4 135 2 192z" />
<glyph unicode="&#xd9;" horiz-adv-x="1462" d="M147 549v833q0 23 13.5 37.5t36.5 14.5h188q23 0 37 -14.5t14 -37.5v-833q0 -162 77 -244t218 -82t218 82t77 244v833q0 23 14.5 37.5t36.5 14.5h189q23 0 36 -14.5t13 -37.5v-833q0 -287 -152.5 -428t-429.5 -141q-278 0 -432 141t-154 428zM352 1796q0 18 10.5 29.5 t28.5 11.5h223q27 0 41.5 -8t34.5 -31l166 -203q10 -10 10 -26q0 -33 -33 -33h-143q-22 0 -37.5 6t-34.5 21l-256 209q-10 10 -10 24z" />
<glyph unicode="&#xda;" horiz-adv-x="1462" d="M147 549v833q0 23 13.5 37.5t36.5 14.5h188q23 0 37 -14.5t14 -37.5v-833q0 -162 77 -244t218 -82t218 82t77 244v833q0 23 14.5 37.5t36.5 14.5h189q23 0 36 -14.5t13 -37.5v-833q0 -287 -152.5 -428t-429.5 -141q-278 0 -432 141t-154 428zM604 1569q0 16 10 26 l168 203q18 23 33.5 31t42.5 8h221q18 0 28.5 -11t10.5 -30q0 -14 -10 -24l-256 -209q-18 -14 -34 -20.5t-38 -6.5h-143q-33 0 -33 33z" />
<glyph unicode="&#xdb;" horiz-adv-x="1462" d="M147 549v833q0 23 13.5 37.5t36.5 14.5h188q23 0 37 -14.5t14 -37.5v-833q0 -162 77 -244t218 -82t218 82t77 244v833q0 23 14.5 37.5t36.5 14.5h189q23 0 36 -14.5t13 -37.5v-833q0 -287 -152.5 -428t-429.5 -141q-278 0 -432 141t-154 428zM381 1563q0 16 18 34 l201 207q18 20 33.5 26.5t35.5 6.5h123q20 0 34.5 -6t35.5 -27l198 -207q18 -18 19 -34q0 -27 -29 -27h-82q-37 0 -63 14l-174 109l-174 -109q-27 -14 -64 -14h-82q-30 0 -30 27z" />
<glyph unicode="&#xdc;" horiz-adv-x="1462" d="M147 549v833q0 23 13.5 37.5t36.5 14.5h188q23 0 37 -14.5t14 -37.5v-833q0 -162 77 -244t218 -82t218 82t77 244v833q0 23 14.5 37.5t36.5 14.5h189q23 0 36 -14.5t13 -37.5v-833q0 -287 -152.5 -428t-429.5 -141q-278 0 -432 141t-154 428zM385 1581v152q0 20 12 33.5 t33 13.5h151q20 0 34 -13.5t14 -33.5v-152q0 -20 -13.5 -32.5t-34.5 -12.5h-151q-21 0 -33 12.5t-12 32.5zM833 1581v152q0 20 12.5 33.5t32.5 13.5h152q20 0 33.5 -13.5t13.5 -33.5v-152q0 -20 -13.5 -32.5t-33.5 -12.5h-152q-20 0 -32.5 12.5t-12.5 32.5z" />
<glyph unicode="&#xdd;" horiz-adv-x="1361" d="M45 1391q0 18 13.5 30.5t29.5 12.5h184q39 0 64 -39l344 -594l346 594q8 14 23.5 26.5t37.5 12.5h185q18 0 30.5 -12.5t12.5 -30.5q0 -12 -6 -23l-484 -858v-461q0 -23 -14 -36t-37 -13h-188q-21 0 -35 14.5t-14 34.5v461l-486 858q-6 18 -6 23zM553 1569q0 16 10 26 l168 203q18 23 33.5 31t42.5 8h221q18 0 28.5 -11t10.5 -30q0 -14 -10 -24l-256 -209q-18 -14 -34 -20.5t-38 -6.5h-143q-33 0 -33 33z" />
<glyph unicode="&#xde;" horiz-adv-x="1357" d="M160 49v1335q0 23 14 36.5t35 13.5h199q23 0 36 -13.5t13 -36.5v-206h297q250 0 392 -116t142 -339t-141 -337t-393 -114h-297v-223q0 -23 -14.5 -36t-36.5 -13h-197q-21 0 -35 14.5t-14 34.5zM453 502h295q117 0 180 56t63 165q0 106 -60.5 165.5t-182.5 59.5h-295v-446 z" />
<glyph unicode="&#xdf;" horiz-adv-x="1261" d="M137 49v936q0 207 122 338t370 131q166 0 275.5 -56.5t160.5 -146.5t51 -192q0 -104 -44 -176t-116 -113q219 -82 220 -344q0 -104 -53.5 -201.5t-166 -161t-278.5 -63.5h-119q-25 0 -40 13.5t-15 35.5v115q0 23 15.5 36t39.5 13h80q119 0 186.5 62.5t67.5 158.5 q0 98 -67.5 161.5t-190.5 63.5h-80q-25 0 -38 13.5t-13 36.5v100q0 49 51 49h70q111 2 169 51t58 140q0 84 -61.5 138t-161.5 54q-102 0 -161.5 -64.5t-59.5 -191.5v-936q0 -20 -13.5 -34.5t-36.5 -14.5h-172q-20 0 -34.5 14.5t-14.5 34.5z" />
<glyph unicode="&#xe0;" d="M66 293q0 139 112.5 225t308.5 117l281 41v43q0 88 -45 133t-143 45q-68 0 -109 -24.5t-66.5 -50t-33.5 -34.5q-8 -25 -31 -24h-160q-18 0 -31.5 12t-13.5 33q2 51 50 115.5t148.5 112.5t248.5 48q242 0 352 -108.5t110 -284.5v-643q0 -20 -13 -34.5t-36 -14.5h-170 q-20 0 -34.5 14.5t-14.5 34.5v80q-45 -66 -127 -107.5t-205 -41.5q-104 0 -191 41.5t-137 113.5t-50 158zM207 1479q0 18 10.5 29.5t28.5 11.5h207q27 0 42 -8.5t34 -30.5l167 -203q10 -10 11 -27q0 -33 -33 -32h-129q-23 0 -38 6t-34 20l-256 209q-10 10 -10 25zM330 313 q0 -66 54 -101.5t130 -35.5q113 0 184.5 74t71.5 213v41l-205 -33q-236 -37 -235 -158z" />
<glyph unicode="&#xe1;" d="M66 293q0 139 112.5 225t308.5 117l281 41v43q0 88 -45 133t-143 45q-68 0 -109 -24.5t-66.5 -50t-33.5 -34.5q-8 -25 -31 -24h-160q-18 0 -31.5 12t-13.5 33q2 51 50 115.5t148.5 112.5t248.5 48q242 0 352 -108.5t110 -284.5v-643q0 -20 -13 -34.5t-36 -14.5h-170 q-20 0 -34.5 14.5t-14.5 34.5v80q-45 -66 -127 -107.5t-205 -41.5q-104 0 -191 41.5t-137 113.5t-50 158zM330 313q0 -66 54 -101.5t130 -35.5q113 0 184.5 74t71.5 213v41l-205 -33q-236 -37 -235 -158zM438 1251q0 16 10 27l168 203q18 23 33.5 31t42.5 8h207 q18 0 28.5 -11.5t10.5 -29.5q0 -14 -11 -25l-256 -209q-18 -14 -33.5 -20t-37.5 -6h-129q-33 -1 -33 32z" />
<glyph unicode="&#xe2;" d="M66 293q0 139 112.5 225t308.5 117l281 41v43q0 88 -45 133t-143 45q-68 0 -109 -24.5t-66.5 -50t-33.5 -34.5q-8 -25 -31 -24h-160q-18 0 -31.5 12t-13.5 33q2 51 50 115.5t148.5 112.5t248.5 48q242 0 352 -108.5t110 -284.5v-643q0 -20 -13 -34.5t-36 -14.5h-170 q-20 0 -34.5 14.5t-14.5 34.5v80q-45 -66 -127 -107.5t-205 -41.5q-104 0 -191 41.5t-137 113.5t-50 158zM229 1245q0 16 18 35l199 207q20 20 34.5 26.5t35.5 6.5h114q20 0 36 -6.5t34 -26.5l201 -207q18 -18 18 -35q0 -27 -31 -26h-77q-37 0 -64 14l-174 108l-174 -108 q-27 -14 -64 -14h-75q-31 -1 -31 26zM330 313q0 -66 54 -101.5t130 -35.5q113 0 184.5 74t71.5 213v41l-205 -33q-236 -37 -235 -158z" />
<glyph unicode="&#xe3;" d="M66 293q0 139 112.5 225t308.5 117l281 41v43q0 88 -45 133t-143 45q-68 0 -109 -24.5t-66.5 -50t-33.5 -34.5q-8 -25 -31 -24h-160q-18 0 -31.5 12t-13.5 33q2 51 50 115.5t148.5 112.5t248.5 48q242 0 352 -108.5t110 -284.5v-643q0 -20 -13 -34.5t-36 -14.5h-170 q-20 0 -34.5 14.5t-14.5 34.5v80q-45 -66 -127 -107.5t-205 -41.5q-104 0 -191 41.5t-137 113.5t-50 158zM260 1253q0 47 21.5 98.5t66.5 87.5t113 36q39 0 65.5 -10.5t63.5 -30.5q27 -16 43 -23.5t37 -7.5q18 0 29.5 8t21.5 25q10 14 18 21t23 7h94q16 0 26.5 -10t10.5 -24 q0 -47 -22.5 -98.5t-68.5 -87.5t-112 -36q-39 0 -65.5 10.5t-63.5 30.5q-27 16 -43 23.5t-37 7.5q-18 0 -28.5 -8t-22.5 -25q-16 -29 -39 -28h-96q-14 0 -24.5 10t-10.5 24zM330 313q0 -66 54 -101.5t130 -35.5q113 0 184.5 74t71.5 213v41l-205 -33q-236 -37 -235 -158z " />
<glyph unicode="&#xe4;" d="M66 293q0 139 112.5 225t308.5 117l281 41v43q0 88 -45 133t-143 45q-68 0 -109 -24.5t-66.5 -50t-33.5 -34.5q-8 -25 -31 -24h-160q-18 0 -31.5 12t-13.5 33q2 51 50 115.5t148.5 112.5t248.5 48q242 0 352 -108.5t110 -284.5v-643q0 -20 -13 -34.5t-36 -14.5h-170 q-20 0 -34.5 14.5t-14.5 34.5v80q-45 -66 -127 -107.5t-205 -41.5q-104 0 -191 41.5t-137 113.5t-50 158zM266 1303v151q0 20 12.5 33.5t32.5 13.5h152q20 0 33.5 -13t13.5 -34v-151q0 -20 -13.5 -33t-33.5 -13h-152q-20 0 -32.5 12.5t-12.5 33.5zM330 313q0 -66 54 -101.5 t130 -35.5q113 0 184.5 74t71.5 213v41l-205 -33q-236 -37 -235 -158zM653 1303v151q0 20 12.5 33.5t32.5 13.5h152q20 0 33.5 -13t13.5 -34v-151q0 -20 -13.5 -33t-33.5 -13h-152q-20 0 -32.5 12.5t-12.5 33.5z" />
<glyph unicode="&#xe5;" d="M66 293q0 139 112.5 225t308.5 117l281 41v43q0 88 -45 133t-143 45q-68 0 -109 -24.5t-66.5 -50t-33.5 -34.5q-8 -25 -31 -24h-160q-18 0 -31.5 12t-13.5 33q2 51 50 115.5t148.5 112.5t248.5 48q242 0 352 -108.5t110 -284.5v-643q0 -20 -13 -34.5t-36 -14.5h-170 q-20 0 -34.5 14.5t-14.5 34.5v80q-45 -66 -127 -107.5t-205 -41.5q-104 0 -191 41.5t-137 113.5t-50 158zM330 313q0 -66 54 -101.5t130 -35.5q113 0 184.5 74t71.5 213v41l-205 -33q-236 -37 -235 -158zM393 1378q0 74 52 123t128 49t128 -49t52 -123t-52 -122t-128 -48 t-128 48.5t-52 121.5zM512 1378q0 -27 17.5 -44t43.5 -17q27 0 44.5 17.5t17.5 43.5q0 27 -17.5 44.5t-44.5 17.5t-44 -17.5t-17 -44.5z" />
<glyph unicode="&#xe6;" horiz-adv-x="1851" d="M66 293q0 139 113.5 227t309.5 119l279 39v41q0 88 -44 133t-144 45q-68 0 -109 -24.5t-66.5 -50t-33.5 -34.5q-8 -25 -31 -24h-160q-18 0 -31.5 12t-13.5 33q0 49 49 114.5t150.5 113.5t247.5 48q252 0 346 -137q131 137 340 137q182 0 293.5 -79.5t158.5 -201.5 t47 -259v-43q0 -20 -14 -34.5t-37 -14.5h-667v-17q4 -133 65.5 -198.5t151.5 -65.5q57 0 106 23.5t84 70.5q16 20 28.5 26.5t35.5 6.5h176q18 0 30.5 -11.5t12.5 -31.5q0 -45 -55.5 -111.5t-163 -115.5t-252.5 -49q-260 0 -394 184q-135 -184 -411 -184q-119 0 -209 40.5 t-139 112.5t-49 160zM332 313q0 -66 53 -101.5t131 -35.5q113 0 184.5 74t71.5 213v41l-205 -33q-236 -37 -235 -158zM1049 627h436v8q0 121 -55.5 191.5t-161.5 70.5q-90 0 -152.5 -67.5t-66.5 -194.5v-8z" />
<glyph unicode="&#xe7;" d="M92 532l2 82q8 221 142.5 346t359.5 125q162 0 273.5 -57t166 -140t58.5 -159q2 -20 -13.5 -34.5t-36.5 -14.5h-182q-23 0 -33 9t-20 34q-31 78 -81 112.5t-128 34.5q-104 0 -162.5 -65.5t-62.5 -200.5l-2 -76l2 -67q12 -266 225 -266q80 0 129 33.5t80 113.5 q8 23 19.5 33t33.5 10h182q20 0 36 -14.5t14 -34.5q-4 -72 -56.5 -154t-163 -142t-272.5 -60l-43 -89q23 14 72 15q72 0 116 -48t44 -126t-51.5 -130.5t-141.5 -52.5q-70 0 -123 29t-53 57q0 10 8 19l35 31q10 10 20 10q8 0 39 -17.5t70 -17.5q33 0 54.5 19.5t21.5 50.5 q0 29 -21.5 47t-54.5 18q-20 0 -50 -9t-40 -9q-14 0 -27 12l-39 39q-8 10 -8 22t14 41l41 99q-178 29 -281.5 148.5t-109.5 312.5z" />
<glyph unicode="&#xe8;" horiz-adv-x="1183" d="M88 535q0 256 134 403t372 147q244 0 376 -147t132 -393v-43q0 -20 -14.5 -34.5t-36.5 -14.5h-680v-17q4 -115 62.5 -189.5t160.5 -74.5q117 0 190 94q18 23 28.5 28t35.5 5h180q18 0 31.5 -10t13.5 -29q0 -49 -58.5 -115.5t-167 -115.5t-251.5 -49q-229 0 -363.5 131 t-142.5 372zM221 1479q0 18 10.5 29.5t28.5 11.5h207q27 0 42 -8.5t34 -30.5l167 -203q10 -10 11 -27q0 -33 -33 -32h-129q-23 0 -38 6t-34 20l-256 209q-10 10 -10 25zM371 627h448v4q0 121 -60.5 193.5t-164.5 72.5t-163.5 -72.5t-59.5 -193.5v-4z" />
<glyph unicode="&#xe9;" horiz-adv-x="1183" d="M88 535q0 256 134 403t372 147q244 0 376 -147t132 -393v-43q0 -20 -14.5 -34.5t-36.5 -14.5h-680v-17q4 -115 62.5 -189.5t160.5 -74.5q117 0 190 94q18 23 28.5 28t35.5 5h180q18 0 31.5 -10t13.5 -29q0 -49 -58.5 -115.5t-167 -115.5t-251.5 -49q-229 0 -363.5 131 t-142.5 372zM371 627h448v4q0 121 -60.5 193.5t-164.5 72.5t-163.5 -72.5t-59.5 -193.5v-4zM475 1251q0 16 10 27l168 203q18 23 33.5 31t42.5 8h207q18 0 28.5 -11.5t10.5 -29.5q0 -14 -11 -25l-256 -209q-18 -14 -33.5 -20t-37.5 -6h-129q-33 -1 -33 32z" />
<glyph unicode="&#xea;" horiz-adv-x="1183" d="M88 535q0 256 134 403t372 147q244 0 376 -147t132 -393v-43q0 -20 -14.5 -34.5t-36.5 -14.5h-680v-17q4 -115 62.5 -189.5t160.5 -74.5q117 0 190 94q18 23 28.5 28t35.5 5h180q18 0 31.5 -10t13.5 -29q0 -49 -58.5 -115.5t-167 -115.5t-251.5 -49q-229 0 -363.5 131 t-142.5 372zM250 1245q0 16 18 35l199 207q20 20 34.5 26.5t35.5 6.5h114q20 0 36 -6.5t34 -26.5l201 -207q18 -18 18 -35q0 -27 -31 -26h-77q-37 0 -64 14l-174 108l-174 -108q-27 -14 -64 -14h-75q-31 -1 -31 26zM371 627h448v4q0 121 -60.5 193.5t-164.5 72.5 t-163.5 -72.5t-59.5 -193.5v-4z" />
<glyph unicode="&#xeb;" horiz-adv-x="1183" d="M88 535q0 256 134 403t372 147q244 0 376 -147t132 -393v-43q0 -20 -14.5 -34.5t-36.5 -14.5h-680v-17q4 -115 62.5 -189.5t160.5 -74.5q117 0 190 94q18 23 28.5 28t35.5 5h180q18 0 31.5 -10t13.5 -29q0 -49 -58.5 -115.5t-167 -115.5t-251.5 -49q-229 0 -363.5 131 t-142.5 372zM281 1303v151q0 20 12.5 33.5t32.5 13.5h152q20 0 33.5 -13t13.5 -34v-151q0 -20 -13.5 -33t-33.5 -13h-152q-20 0 -32.5 12.5t-12.5 33.5zM371 627h448v4q0 121 -60.5 193.5t-164.5 72.5t-163.5 -72.5t-59.5 -193.5v-4zM668 1303v151q0 20 12.5 33.5t32.5 13.5 h152q20 0 33.5 -13t13.5 -34v-151q0 -20 -13.5 -33t-33.5 -13h-152q-20 0 -32.5 12.5t-12.5 33.5z" />
<glyph unicode="&#xec;" horiz-adv-x="542" d="M-107 1479q0 18 10.5 29.5t28.5 11.5h207q27 0 42 -8.5t34 -30.5l167 -203q10 -10 11 -27q0 -33 -33 -32h-129q-23 0 -38 6t-34 20l-256 209q-10 10 -10 25zM135 49v967q0 23 14.5 36t34.5 13h174q20 0 35 -14.5t15 -34.5v-967q0 -20 -14.5 -34.5t-35.5 -14.5h-174 q-20 0 -34.5 14.5t-14.5 34.5z" />
<glyph unicode="&#xed;" horiz-adv-x="542" d="M135 49v967q0 23 14.5 36t34.5 13h174q20 0 35 -14.5t15 -34.5v-967q0 -20 -14.5 -34.5t-35.5 -14.5h-174q-20 0 -34.5 14.5t-14.5 34.5zM150 1251q0 16 10 27l168 203q18 23 33.5 31t42.5 8h207q18 0 28.5 -11.5t10.5 -29.5q0 -14 -11 -25l-256 -209q-18 -14 -33.5 -20 t-37.5 -6h-129q-33 -1 -33 32z" />
<glyph unicode="&#xee;" horiz-adv-x="542" d="M-74 1245q0 16 18 35l199 207q20 20 34.5 26.5t35.5 6.5h114q20 0 36 -6.5t34 -26.5l201 -207q18 -18 18 -35q0 -27 -31 -26h-77q-37 0 -64 14l-174 108l-174 -108q-27 -14 -64 -14h-75q-31 -1 -31 26zM135 49v967q0 23 14.5 36t34.5 13h174q20 0 35 -14.5t15 -34.5v-967 q0 -20 -14.5 -34.5t-35.5 -14.5h-174q-20 0 -34.5 14.5t-14.5 34.5z" />
<glyph unicode="&#xef;" horiz-adv-x="542" d="M-45 1303v151q0 20 12.5 33.5t32.5 13.5h152q20 0 33.5 -13t13.5 -34v-151q0 -20 -13.5 -33t-33.5 -13h-152q-20 0 -32.5 12.5t-12.5 33.5zM135 49v967q0 23 14.5 36t34.5 13h174q20 0 35 -14.5t15 -34.5v-967q0 -20 -14.5 -34.5t-35.5 -14.5h-174q-20 0 -34.5 14.5 t-14.5 34.5zM342 1303v151q0 20 12.5 33.5t32.5 13.5h152q20 0 33.5 -13t13.5 -34v-151q0 -20 -13.5 -33t-33.5 -13h-152q-20 0 -32.5 12.5t-12.5 33.5z" />
<glyph unicode="&#xf0;" horiz-adv-x="1202" d="M86 473q0 150 62.5 260.5t178 170t269.5 59.5q100 0 170 -48q-39 111 -104 193l-216 -84q-16 -6 -24 -6q-18 0 -29.5 10t-11.5 29v47q0 25 10 37t35 22l137 54q-74 70 -155 131q-33 25 -33 43t12 30.5t31 12.5h184q55 0 88 -27l35 -31q53 -45 76 -69l188 73q16 6 25 6 q18 0 29.5 -10t11.5 -28v-48q0 -25 -10.5 -36t-34.5 -21l-109 -43q94 -121 145.5 -283.5t59.5 -394.5v-57q-6 -225 -140.5 -355t-369.5 -130q-240 0 -375 132t-135 361zM369 444q4 -117 60 -187.5t167 -70.5t168 72t59 188v50q-2 119 -58 190.5t-169 71.5t-169 -72t-58 -190 v-52z" />
<glyph unicode="&#xf1;" horiz-adv-x="1280" d="M135 49v967q0 23 14.5 36t34.5 13h170q23 0 36 -13.5t13 -35.5v-84q125 154 342 153q188 0 299 -122.5t111 -337.5v-576q0 -20 -13.5 -34.5t-35.5 -14.5h-184q-20 0 -35 14.5t-15 34.5v563q0 119 -58 185.5t-167 66.5q-104 0 -167.5 -67.5t-63.5 -184.5v-563 q0 -20 -13.5 -34.5t-35.5 -14.5h-183q-20 0 -34.5 14.5t-14.5 34.5zM330 1253q0 47 21.5 98.5t66.5 87.5t113 36q39 0 65.5 -10.5t63.5 -30.5q27 -16 43 -23.5t37 -7.5q18 0 29.5 8t21.5 25q10 14 18 21t23 7h94q16 0 26.5 -10t10.5 -24q0 -47 -22.5 -98.5t-68.5 -87.5 t-112 -36q-39 0 -65.5 10.5t-63.5 30.5q-27 16 -43 23.5t-37 7.5q-18 0 -28.5 -8t-22.5 -25q-16 -29 -39 -28h-96q-14 0 -24.5 10t-10.5 24z" />
<glyph unicode="&#xf2;" horiz-adv-x="1214" d="M92 532l2 91q10 215 143.5 338.5t370.5 123.5q236 0 369 -123.5t143 -338.5q2 -25 2 -91t-2 -90q-10 -217 -141 -339.5t-371 -122.5q-241 0 -372.5 122.5t-141.5 339.5zM231 1479q0 18 10.5 29.5t28.5 11.5h207q27 0 42 -8.5t34 -30.5l167 -203q10 -10 11 -27 q0 -33 -33 -32h-129q-23 0 -38 6t-34 20l-256 209q-10 10 -10 25zM375 532l2 -79q4 -131 63.5 -199t167.5 -68q109 0 167.5 68t62.5 199q2 20 2 79t-2 80q-4 131 -63.5 200t-166.5 69q-109 0 -168 -69t-63 -200z" />
<glyph unicode="&#xf3;" horiz-adv-x="1214" d="M92 532l2 91q10 215 143.5 338.5t370.5 123.5q236 0 369 -123.5t143 -338.5q2 -25 2 -91t-2 -90q-10 -217 -141 -339.5t-371 -122.5q-241 0 -372.5 122.5t-141.5 339.5zM375 532l2 -79q4 -131 63.5 -199t167.5 -68q109 0 167.5 68t62.5 199q2 20 2 79t-2 80 q-4 131 -63.5 200t-166.5 69q-109 0 -168 -69t-63 -200zM483 1251q0 16 10 27l168 203q18 23 33.5 31t42.5 8h207q18 0 28.5 -11.5t10.5 -29.5q0 -14 -11 -25l-256 -209q-18 -14 -33.5 -20t-37.5 -6h-129q-33 -1 -33 32z" />
<glyph unicode="&#xf4;" horiz-adv-x="1214" d="M92 532l2 91q10 215 143.5 338.5t370.5 123.5q236 0 369 -123.5t143 -338.5q2 -25 2 -91t-2 -90q-10 -217 -141 -339.5t-371 -122.5q-241 0 -372.5 122.5t-141.5 339.5zM262 1245q0 16 18 35l199 207q20 20 34.5 26.5t35.5 6.5h114q20 0 36 -6.5t34 -26.5l201 -207 q18 -18 18 -35q0 -27 -31 -26h-77q-37 0 -64 14l-174 108l-174 -108q-27 -14 -64 -14h-75q-31 -1 -31 26zM375 532l2 -79q4 -131 63.5 -199t167.5 -68q109 0 167.5 68t62.5 199q2 20 2 79t-2 80q-4 131 -63.5 200t-166.5 69q-109 0 -168 -69t-63 -200z" />
<glyph unicode="&#xf5;" horiz-adv-x="1214" d="M92 532l2 91q10 215 143.5 338.5t370.5 123.5q236 0 369 -123.5t143 -338.5q2 -25 2 -91t-2 -90q-10 -217 -141 -339.5t-371 -122.5q-241 0 -372.5 122.5t-141.5 339.5zM293 1253q0 47 21.5 98.5t66.5 87.5t113 36q39 0 65.5 -10.5t63.5 -30.5q27 -16 43 -23.5t37 -7.5 q18 0 29.5 8t21.5 25q10 14 18 21t23 7h94q16 0 26.5 -10t10.5 -24q0 -47 -22.5 -98.5t-68.5 -87.5t-112 -36q-39 0 -65.5 10.5t-63.5 30.5q-27 16 -43 23.5t-37 7.5q-18 0 -28.5 -8t-22.5 -25q-16 -29 -39 -28h-96q-14 0 -24.5 10t-10.5 24zM375 532l2 -79 q4 -131 63.5 -199t167.5 -68q109 0 167.5 68t62.5 199q2 20 2 79t-2 80q-4 131 -63.5 200t-166.5 69q-109 0 -168 -69t-63 -200z" />
<glyph unicode="&#xf6;" horiz-adv-x="1214" d="M92 532l2 91q10 215 143.5 338.5t370.5 123.5q236 0 369 -123.5t143 -338.5q2 -25 2 -91t-2 -90q-10 -217 -141 -339.5t-371 -122.5q-241 0 -372.5 122.5t-141.5 339.5zM293 1303v151q0 20 12.5 33.5t32.5 13.5h152q20 0 33.5 -13t13.5 -34v-151q0 -20 -13.5 -33 t-33.5 -13h-152q-20 0 -32.5 12.5t-12.5 33.5zM375 532l2 -79q4 -131 63.5 -199t167.5 -68q109 0 167.5 68t62.5 199q2 20 2 79t-2 80q-4 131 -63.5 200t-166.5 69q-109 0 -168 -69t-63 -200zM680 1303v151q0 20 12.5 33.5t32.5 13.5h152q20 0 33.5 -13t13.5 -34v-151 q0 -20 -13.5 -33t-33.5 -13h-152q-20 0 -32.5 12.5t-12.5 33.5z" />
<glyph unicode="&#xf7;" horiz-adv-x="1116" d="M113 557v117q0 23 14 36t35 13h792q23 0 36.5 -13.5t13.5 -35.5v-117q0 -20 -14.5 -34.5t-35.5 -14.5h-792q-21 0 -35 14.5t-14 34.5zM426 166v153q0 23 14.5 37.5t34.5 14.5h164q23 0 37 -14.5t14 -37.5v-153q0 -20 -14 -34.5t-37 -14.5h-164q-20 0 -34.5 14t-14.5 35z M426 911v154q0 23 14.5 37t34.5 14h164q23 0 37 -14.5t14 -36.5v-154q0 -20 -14 -34.5t-37 -14.5h-164q-20 0 -34.5 14.5t-14.5 34.5z" />
<glyph unicode="&#xf8;" horiz-adv-x="1277" d="M25 264v80q0 25 10 37t35 22l59 23q-4 78 -4 117l2 80q10 205 139 333.5t375 128.5q184 0 300 -74.5t169 -203.5l78 31q16 6 24 6q18 0 29.5 -11.5t11.5 -29.5v-80q0 -25 -10 -36t-35 -21l-57 -23q4 -31 4 -113q0 -63 -2 -88q-10 -207 -136 -334.5t-376 -127.5 q-188 0 -306 74.5t-169 205.5l-76 -29q-16 -6 -24 -6q-18 0 -29.5 10.5t-11.5 28.5zM410 535l450 174q-20 88 -78.5 130t-140.5 42q-102 0 -163.5 -61.5t-67.5 -190.5v-94zM420 358q41 -172 221 -172q219 0 231 260v89z" />
<glyph unicode="&#xf9;" horiz-adv-x="1273" d="M125 440v576q0 23 14.5 36t34.5 13h184q20 0 35 -14.5t15 -34.5v-563q0 -252 219 -252q106 0 168.5 67.5t62.5 184.5v563q0 23 14.5 36t34.5 13h183q23 0 36 -13.5t13 -35.5v-967q0 -20 -13.5 -34.5t-35.5 -14.5h-170q-20 0 -35 14.5t-15 34.5v84q-113 -154 -340 -153 q-188 0 -296.5 122.5t-108.5 337.5zM254 1479q0 18 10.5 29.5t28.5 11.5h207q27 0 42 -8.5t34 -30.5l167 -203q10 -10 11 -27q0 -33 -33 -32h-129q-23 0 -38 6t-34 20l-256 209q-10 10 -10 25z" />
<glyph unicode="&#xfa;" horiz-adv-x="1273" d="M125 440v576q0 23 14.5 36t34.5 13h184q20 0 35 -14.5t15 -34.5v-563q0 -252 219 -252q106 0 168.5 67.5t62.5 184.5v563q0 23 14.5 36t34.5 13h183q23 0 36 -13.5t13 -35.5v-967q0 -20 -13.5 -34.5t-35.5 -14.5h-170q-20 0 -35 14.5t-15 34.5v84q-113 -154 -340 -153 q-188 0 -296.5 122.5t-108.5 337.5zM508 1251q0 16 10 27l168 203q18 23 33.5 31t42.5 8h207q18 0 28.5 -11.5t10.5 -29.5q0 -14 -11 -25l-256 -209q-18 -14 -33.5 -20t-37.5 -6h-129q-33 -1 -33 32z" />
<glyph unicode="&#xfb;" horiz-adv-x="1273" d="M125 440v576q0 23 14.5 36t34.5 13h184q20 0 35 -14.5t15 -34.5v-563q0 -252 219 -252q106 0 168.5 67.5t62.5 184.5v563q0 23 14.5 36t34.5 13h183q23 0 36 -13.5t13 -35.5v-967q0 -20 -13.5 -34.5t-35.5 -14.5h-170q-20 0 -35 14.5t-15 34.5v84q-113 -154 -340 -153 q-188 0 -296.5 122.5t-108.5 337.5zM287 1245q0 16 18 35l199 207q20 20 34.5 26.5t35.5 6.5h114q20 0 36 -6.5t34 -26.5l201 -207q18 -18 18 -35q0 -27 -31 -26h-77q-37 0 -64 14l-174 108l-174 -108q-27 -14 -64 -14h-75q-31 -1 -31 26z" />
<glyph unicode="&#xfc;" horiz-adv-x="1273" d="M125 440v576q0 23 14.5 36t34.5 13h184q20 0 35 -14.5t15 -34.5v-563q0 -252 219 -252q106 0 168.5 67.5t62.5 184.5v563q0 23 14.5 36t34.5 13h183q23 0 36 -13.5t13 -35.5v-967q0 -20 -13.5 -34.5t-35.5 -14.5h-170q-20 0 -35 14.5t-15 34.5v84q-113 -154 -340 -153 q-188 0 -296.5 122.5t-108.5 337.5zM317 1303v151q0 20 12.5 33.5t32.5 13.5h152q20 0 33.5 -13t13.5 -34v-151q0 -20 -13.5 -33t-33.5 -13h-152q-20 0 -32.5 12.5t-12.5 33.5zM704 1303v151q0 20 12.5 33.5t32.5 13.5h152q20 0 33.5 -13t13.5 -34v-151q0 -20 -13.5 -33 t-33.5 -13h-152q-20 0 -32.5 12.5t-12.5 33.5z" />
<glyph unicode="&#xfd;" horiz-adv-x="1177" d="M53 1020q2 18 14.5 31.5t30.5 13.5h170q37 0 54 -39l272 -668l276 668q20 39 58 39h166q18 0 30.5 -12.5t12.5 -28.5q0 -14 -9 -33l-579 -1341q-16 -39 -57 -39h-164q-17 0 -30 12t-13 29q0 14 8 33l162 378l-394 928q-8 18 -8 29zM473 1251q0 16 10 27l168 203 q18 23 33.5 31t42.5 8h207q18 0 28.5 -11.5t10.5 -29.5q0 -14 -11 -25l-256 -209q-18 -14 -33.5 -20t-37.5 -6h-129q-33 -1 -33 32z" />
<glyph unicode="&#xfe;" horiz-adv-x="1259" d="M137 -340v1745q0 23 14.5 36t34.5 13h179q23 0 36 -13.5t13 -35.5v-463q53 70 126.5 106.5t188.5 36.5q207 0 317.5 -130t118.5 -349q2 -25 2 -74t-2 -73q-8 -215 -119.5 -347t-316.5 -132q-207 0 -315 145v-465q0 -23 -13.5 -36t-35.5 -13h-179q-20 0 -34.5 13.5 t-14.5 35.5zM412 526l2 -80q4 -102 64.5 -173.5t172.5 -71.5q218 0 232 270q2 20 2 61t-2 62q-14 270 -232 270q-117 0 -174 -74.5t-63 -185.5z" />
<glyph unicode="&#xff;" horiz-adv-x="1177" d="M53 1020q2 18 14.5 31.5t30.5 13.5h170q37 0 54 -39l272 -668l276 668q20 39 58 39h166q18 0 30.5 -12.5t12.5 -28.5q0 -14 -9 -33l-579 -1341q-16 -39 -57 -39h-164q-17 0 -30 12t-13 29q0 14 8 33l162 378l-394 928q-8 18 -8 29zM279 1303v151q0 20 12.5 33.5 t32.5 13.5h152q20 0 33.5 -13t13.5 -34v-151q0 -20 -13.5 -33t-33.5 -13h-152q-20 0 -32.5 12.5t-12.5 33.5zM666 1303v151q0 20 12.5 33.5t32.5 13.5h152q20 0 33.5 -13t13.5 -34v-151q0 -20 -13.5 -33t-33.5 -13h-152q-20 0 -32.5 12.5t-12.5 33.5z" />
<glyph unicode="&#x152;" horiz-adv-x="1931" d="M111 717l2 160q16 557 618 557h1036q23 0 36.5 -14.5t13.5 -37.5v-137q0 -20 -13.5 -34.5t-36.5 -14.5h-608v-358h563q23 0 36.5 -14.5t13.5 -37.5v-129q0 -20 -13.5 -34.5t-36.5 -14.5h-563v-370h625q23 0 36 -13.5t13 -36.5v-139q0 -20 -13.5 -34.5t-35.5 -14.5h-1063 q-305 0 -451.5 136t-156.5 423zM403 719q0 -92 3 -154q4 -176 79.5 -251.5t245.5 -75.5h148v958h-138q-172 0 -251.5 -79t-83.5 -247q-2 -59 -3 -151z" />
<glyph unicode="&#x153;" horiz-adv-x="1933" d="M94 532q0 66 2 91q10 215 143.5 338.5t368.5 123.5q125 0 221.5 -43t157.5 -120q131 164 361 163q244 0 375.5 -147t131.5 -393v-43q0 -20 -14 -34.5t-37 -14.5h-680v-17q4 -115 62.5 -189.5t161.5 -74.5q111 0 184 94q18 23 28.5 28t34.5 5h181q18 0 31.5 -10t13.5 -29 q0 -49 -57.5 -115.5t-165 -115.5t-248.5 -49q-117 0 -209 41.5t-156 117.5q-59 -76 -154.5 -117.5t-222.5 -41.5q-241 0 -371.5 123.5t-140.5 338.5q-2 25 -2 90zM375 532l2 -79q6 -131 64.5 -199t166.5 -68q109 0 167.5 68t64.5 199q2 20 2 79t-2 80q-6 131 -65.5 200 t-166.5 69q-106 0 -165.5 -69t-65.5 -200zM1124 627h449v4q0 121 -60.5 193.5t-164.5 72.5t-164 -72.5t-60 -193.5v-4z" />
<glyph unicode="&#x178;" horiz-adv-x="1361" d="M45 1391q0 18 13.5 30.5t29.5 12.5h184q39 0 64 -39l344 -594l346 594q8 14 23.5 26.5t37.5 12.5h185q18 0 30.5 -12.5t12.5 -30.5q0 -12 -6 -23l-484 -858v-461q0 -23 -14 -36t-37 -13h-188q-21 0 -35 14.5t-14 34.5v461l-486 858q-6 18 -6 23zM334 1581v152 q0 20 12 33.5t33 13.5h151q20 0 34 -13.5t14 -33.5v-152q0 -20 -13.5 -32.5t-34.5 -12.5h-151q-21 0 -33 12.5t-12 32.5zM782 1581v152q0 20 12.5 33.5t32.5 13.5h152q20 0 33.5 -13.5t13.5 -33.5v-152q0 -20 -13.5 -32.5t-33.5 -12.5h-152q-20 0 -32.5 12.5t-12.5 32.5z " />
<glyph unicode="&#x2c6;" horiz-adv-x="942" d="M127 1245q0 16 18 35l199 207q20 20 34.5 26.5t35.5 6.5h114q20 0 36 -6.5t34 -26.5l201 -207q18 -18 18 -35q0 -27 -31 -26h-77q-37 0 -64 14l-174 108l-174 -108q-27 -14 -64 -14h-75q-31 -1 -31 26z" />
<glyph unicode="&#x2dc;" horiz-adv-x="884" d="M127 1253q0 47 21.5 98.5t66.5 87.5t113 36q39 0 65.5 -10.5t63.5 -30.5q27 -16 43 -23.5t37 -7.5q18 0 29.5 8t21.5 25q10 14 18 21t23 7h94q16 0 26.5 -10t10.5 -24q0 -47 -22.5 -98.5t-68.5 -87.5t-112 -36q-39 0 -65.5 10.5t-63.5 30.5q-27 16 -43 23.5t-37 7.5 q-18 0 -28.5 -8t-22.5 -25q-16 -29 -39 -28h-96q-14 0 -24.5 10t-10.5 24z" />
<glyph unicode="&#x2000;" horiz-adv-x="929" />
<glyph unicode="&#x2001;" horiz-adv-x="1858" />
<glyph unicode="&#x2002;" horiz-adv-x="929" />
<glyph unicode="&#x2003;" horiz-adv-x="1858" />
<glyph unicode="&#x2004;" horiz-adv-x="619" />
<glyph unicode="&#x2005;" horiz-adv-x="464" />
<glyph unicode="&#x2006;" horiz-adv-x="309" />
<glyph unicode="&#x2007;" horiz-adv-x="309" />
<glyph unicode="&#x2008;" horiz-adv-x="232" />
<glyph unicode="&#x2009;" horiz-adv-x="371" />
<glyph unicode="&#x200a;" horiz-adv-x="103" />
<glyph unicode="&#x2010;" horiz-adv-x="983" d="M127 545v139q0 20 14.5 34.5t34.5 14.5h631q23 0 36 -13t13 -36v-139q0 -20 -14.5 -34.5t-34.5 -14.5h-631q-20 0 -34.5 14t-14.5 35z" />
<glyph unicode="&#x2011;" horiz-adv-x="983" d="M127 545v139q0 20 14.5 34.5t34.5 14.5h631q23 0 36 -13t13 -36v-139q0 -20 -14.5 -34.5t-34.5 -14.5h-631q-20 0 -34.5 14t-14.5 35z" />
<glyph unicode="&#x2012;" horiz-adv-x="983" d="M127 545v139q0 20 14.5 34.5t34.5 14.5h631q23 0 36 -13t13 -36v-139q0 -20 -14.5 -34.5t-34.5 -14.5h-631q-20 0 -34.5 14t-14.5 35z" />
<glyph unicode="&#x2013;" horiz-adv-x="1167" d="M127 545v139q0 20 14.5 34.5t34.5 14.5h815q23 0 36 -13t13 -36v-139q0 -20 -14 -34.5t-35 -14.5h-815q-20 0 -34.5 14t-14.5 35z" />
<glyph unicode="&#x2014;" horiz-adv-x="1556" d="M127 545v139q0 20 14.5 34.5t34.5 14.5h1204q23 0 36.5 -13t13.5 -36v-139q0 -20 -14.5 -34.5t-35.5 -14.5h-1204q-20 0 -34.5 14t-14.5 35z" />
<glyph unicode="&#x2018;" horiz-adv-x="518" d="M84 1032q0 16 4 29l133 340q12 25 26.5 39t41.5 14h106q18 0 28.5 -12t8.5 -33l-55 -348q-4 -29 -20.5 -47.5t-45.5 -18.5h-190q-17 0 -27 11.5t-10 25.5z" />
<glyph unicode="&#x2019;" horiz-adv-x="505" d="M100 1040l56 349q4 29 19 47t46 18h191q14 0 25.5 -11t11.5 -26q0 -12 -7 -28l-133 -342q-20 -51 -67 -52h-107q-18 0 -27.5 12.5t-7.5 32.5z" />
<glyph unicode="&#x201a;" horiz-adv-x="540" d="M86 -109l53 349q4 29 20.5 47t47.5 18h188q16 0 26.5 -11t10.5 -26q0 -16 -4 -28l-133 -340q-12 -25 -26.5 -39.5t-41.5 -14.5h-106q-19 0 -29 12.5t-6 32.5z" />
<glyph unicode="&#x201c;" horiz-adv-x="911" d="M84 1032q0 16 4 29l133 340q12 25 26.5 39t41.5 14h106q18 0 28.5 -12t8.5 -33l-55 -348q-4 -29 -20.5 -47.5t-45.5 -18.5h-190q-17 0 -27 11.5t-10 25.5zM475 1032q0 10 6 29l133 340q20 53 68 53h106q16 0 26.5 -12t8.5 -33l-53 -348q-12 -66 -68 -66h-190 q-14 0 -25.5 11.5t-11.5 25.5z" />
<glyph unicode="&#x201d;" horiz-adv-x="899" d="M100 1040l56 349q4 29 19 47t46 18h191q14 0 25.5 -11t11.5 -26q0 -12 -7 -28l-133 -342q-20 -51 -67 -52h-107q-16 0 -26.5 12.5t-8.5 32.5zM494 1040l53 349q4 29 20.5 47t46.5 18h189q16 0 26.5 -11t10.5 -26q0 -18 -4 -28l-134 -342q-10 -25 -25 -38.5t-42 -13.5 h-107q-18 0 -27 12.5t-7 32.5z" />
<glyph unicode="&#x201e;" horiz-adv-x="933" d="M86 -109l53 349q4 29 20.5 47t47.5 18h188q16 0 26.5 -11t10.5 -26q0 -16 -4 -28l-133 -340q-12 -25 -26.5 -39.5t-41.5 -14.5h-106q-19 0 -29 12.5t-6 32.5zM477 -111l55 351q4 29 19.5 47t46.5 18h190q14 0 25.5 -11t11.5 -26q0 -10 -6 -28l-133 -340q-20 -53 -68 -54 h-106q-16 0 -26.5 12.5t-8.5 30.5z" />
<glyph unicode="&#x2022;" horiz-adv-x="784" d="M154 657q0 98 69.5 169t169.5 71q98 0 168 -70.5t70 -169.5q0 -98 -69.5 -168.5t-168.5 -70.5q-100 0 -169.5 70.5t-69.5 168.5z" />
<glyph unicode="&#x2026;" horiz-adv-x="1396" d="M123 49v189q0 23 14.5 37t34.5 14h188q23 0 37.5 -14.5t14.5 -36.5v-189q0 -20 -14.5 -34.5t-37.5 -14.5h-188q-20 0 -34.5 14.5t-14.5 34.5zM555 49v189q0 23 14.5 37t34.5 14h189q23 0 37 -14.5t14 -36.5v-189q0 -20 -14.5 -34.5t-36.5 -14.5h-189q-20 0 -34.5 14.5 t-14.5 34.5zM987 49v189q0 23 14.5 37t34.5 14h189q20 0 34.5 -14.5t14.5 -36.5v-189q0 -20 -13.5 -34.5t-35.5 -14.5h-189q-20 0 -34.5 14.5t-14.5 34.5z" />
<glyph unicode="&#x202f;" horiz-adv-x="371" />
<glyph unicode="&#x2039;" horiz-adv-x="714" d="M74 637v74q4 39 32 67l410 398q23 18 41 18t30.5 -12.5t12.5 -30.5v-141q0 -29 -8 -45.5t-29 -36.5l-262 -254l262 -254q20 -20 28.5 -36.5t8.5 -45.5v-141q0 -18 -12.5 -30.5t-30.5 -12.5t-41 18l-410 399q-29 27 -32 66z" />
<glyph unicode="&#x203a;" horiz-adv-x="714" d="M115 197v141q0 29 8 45t29 37l262 254l-262 254q-20 20 -28.5 36.5t-8.5 45.5v141q0 18 12 30.5t31 12.5q18 0 41 -18l409 -398q29 -29 33 -67v-74q-4 -39 -33 -66l-409 -399q-20 -18 -41 -18q-19 0 -31 12t-12 31z" />
<glyph unicode="&#x205f;" horiz-adv-x="464" />
<glyph unicode="&#x20ac;" horiz-adv-x="1566" d="M78 508v119q0 23 14 36t35 13h127v78h-127q-20 0 -34.5 14t-14.5 35v119q0 23 14 36t35 13h133q27 233 179.5 358t416.5 125q184 0 321.5 -60.5t210 -162t76.5 -221.5v-4q0 -16 -13 -27.5t-30 -11.5h-198q-25 0 -39.5 11t-22.5 40q-31 104 -106.5 151.5t-198.5 47.5 q-254 0 -295 -246h338q23 0 36 -13.5t13 -35.5v-119q0 -20 -14 -34.5t-35 -14.5h-346v-78h346q23 0 36 -13.5t13 -35.5v-119q0 -20 -13 -34.5t-36 -14.5h-338q41 -242 295 -242q123 0 198.5 47t106.5 152q8 29 22.5 40t39.5 11h198q19 0 32 -12.5t11 -30.5 q-4 -121 -76.5 -222.5t-210 -161.5t-321.5 -60q-262 0 -414.5 123.5t-181.5 355.5h-133q-20 0 -34.5 14t-14.5 35z" />
<glyph unicode="&#x2122;" horiz-adv-x="1310" d="M88 1329v60q0 20 12.5 32.5t32.5 12.5h367q20 0 32.5 -12.5t12.5 -32.5v-60q0 -20 -12.5 -32.5t-32.5 -12.5h-107v-350q0 -20 -12 -32.5t-33 -12.5h-63q-21 0 -33 12t-12 33v350h-107q-20 0 -32.5 12.5t-12.5 32.5zM606 934v455q0 20 12.5 32.5t32.5 12.5h60 q20 0 33.5 -12.5t27.5 -32.5l115 -183l114 183q14 20 27.5 32.5t34.5 12.5h59q20 0 32.5 -12.5t12.5 -32.5v-455q0 -20 -12 -32.5t-33 -12.5h-61q-20 0 -32.5 12t-12.5 33v221l-60 -94q-14 -23 -24 -32t-29 -9h-33q-18 0 -28.5 9t-24.5 32l-59 94v-221q0 -20 -12.5 -32.5 t-32.5 -12.5h-62q-20 0 -32.5 12t-12.5 33z" />
<glyph unicode="&#x25fc;" horiz-adv-x="1064" d="M0 0v1065h1065v-1065h-1065z" />
<glyph unicode="&#xfb03;" horiz-adv-x="1949" d="M35 895v121q0 20 14 34.5t35 14.5h166v82q0 186 100.5 277.5t302.5 91.5h142q20 0 34.5 -14.5t14.5 -35.5v-120q0 -20 -14.5 -35t-34.5 -15h-131q-80 0 -113 -38.5t-33 -120.5v-72h420v82q0 186 100.5 277.5t302.5 91.5h424q23 0 36.5 -13.5t13.5 -36.5v-120 q0 -20 -14.5 -35t-35.5 -15h-413q-80 0 -113 -38.5t-33 -120.5v-72h559q23 0 36.5 -13.5t13.5 -35.5v-967q0 -20 -13.5 -34.5t-36.5 -14.5h-170q-20 0 -34.5 14.5t-14.5 34.5v797h-340v-797q0 -20 -13 -34.5t-36 -14.5h-170q-20 0 -34.5 14.5t-14.5 34.5v797h-420v-797 q0 -20 -13 -34.5t-36 -14.5h-170q-20 0 -34.5 14.5t-14.5 34.5v797h-166q-20 0 -34.5 14t-14.5 35z" />
<glyph unicode="&#xfb04;" horiz-adv-x="2031" d="M35 895v121q0 20 14 34.5t35 14.5h166v82q0 186 100.5 277.5t302.5 91.5h142q20 0 34.5 -14.5t14.5 -35.5v-120q0 -20 -14.5 -35t-34.5 -15h-131q-80 0 -113 -38.5t-33 -120.5v-72h420v82q0 186 100.5 277.5t302.5 91.5h123q23 0 37.5 -14.5t14.5 -35.5v-120 q0 -20 -15.5 -35t-36.5 -15h-112q-80 0 -113 -38.5t-33 -120.5v-72h420v401q0 20 14.5 35t36.5 15h168q23 0 36 -13.5t13 -36.5v-1417q0 -20 -13 -34.5t-36 -14.5h-168q-23 0 -37 14.5t-14 34.5v797h-420v-797q0 -20 -13 -34.5t-36 -14.5h-170q-20 0 -34.5 14.5t-14.5 34.5 v797h-420v-797q0 -20 -13 -34.5t-36 -14.5h-170q-20 0 -34.5 14.5t-14.5 34.5v797h-166q-20 0 -34.5 14t-14.5 35z" />
</font>
</defs>
</svg>
